<?xml version="1.0" standalone="no"?>
<!DOCTYPE svg PUBLIC "-//W3C//DTD SVG 1.1//EN" "http://www.w3.org/Graphics/SVG/1.1/DTD/svg11.dtd" >
<svg xmlns="http://www.w3.org/2000/svg" xmlns:xlink="http://www.w3.org/1999/xlink" version="1.1">
<metadata>
Created by FontForge 20161013 at Wed Jun 13 20:22:48 2007
 By ,,,
(c) 1989, 1990, 1991, 1992, 2002 Adobe Systems Incorporated. All rights reserved.
</metadata>
<defs>
<font id="KuenstlerScriptLTStd-Black" horiz-adv-x="296" >
  <font-face 
    font-family="Kuenstler Script LT Std Medium"
    font-weight="750"
    font-style="italic"
    font-stretch="normal"
    units-per-em="1000"
    panose-1="3 3 9 2 4 6 7 9 13 3"
    ascent="698"
    descent="-302"
    x-height="308"
    cap-height="728"
    bbox="-414 -268 1686 984"
    underline-thickness="50"
    underline-position="-200"
    slope="-40"
    unicode-range="U+0020-FB02"
  />
<missing-glyph horiz-adv-x="800" 
d="M300 0v700h500v-700h-500zM550 395l170 255h-340zM580 350l170 -255v510zM380 50h340l-170 255zM350 605v-510l170 255z" />
    <glyph glyph-name="f_i" unicode="fi" horiz-adv-x="630" 
d="M552 535l-192 -215h2q94 39 191.5 104.5t164 136.5t66.5 118q0 37 -30 37q-41 0 -202 -181zM-236 -220l332 368q-17 6 -42.5 26.5t-25.5 36.5q0 21 17 21q14 0 19 -33q6 -26 42 -39l336 361q73 80 166.5 143.5t141.5 63.5q19 0 32.5 -11t13.5 -33q0 -81 -127 -188.5
t-329 -199.5l-138 -161q69 2 129 24.5t133 69.5l70 79h114l-234 -264q-20 -24 -20 -30q0 -14 17 -14q27 0 94.5 48.5t148.5 125.5l10 -4q-110 -106 -166.5 -144t-90.5 -38q-25 0 -43 19t-18 43q0 45 38 88l52 57l-2 2q-116 -74 -242 -74l-304 -343h-124zM688 446q0 20 19 39
t45 19q19 0 31.5 -10.5t12.5 -27.5q0 -20 -19 -39t-45 -19q-19 0 -31.5 10.5t-12.5 27.5z" />
    <glyph glyph-name="f_l" unicode="fl" horiz-adv-x="740" 
d="M842 504l-190 -222h2q89 36 188 107.5t165.5 145.5t66.5 117q0 32 -26 32q-50 0 -206 -180zM-236 -220l332 368q-17 6 -42.5 26.5t-25.5 36.5q0 21 17 21q14 0 19 -33q6 -26 42 -39l336 361q73 80 166.5 143.5t141.5 63.5q19 0 32.5 -11t13.5 -33q0 -81 -127 -188.5
t-329 -199.5l-138 -161q69 2 134 27t170 92q172 197 323 319.5t223 122.5q34 0 34 -42q0 -30 -33 -79t-89 -104.5t-143.5 -113t-184.5 -97.5l-137 -167q-35 -42 -35 -65q0 -13 11 -20.5t27 -7.5q53 0 131 59t123 115l14 -6q-62 -69 -137.5 -124.5t-126.5 -55.5
q-90 0 -90 112q0 49 60 120l-1 1q-151 -98 -283 -98l-304 -343h-124zM552 535l-192 -215h2q94 39 191.5 104.5t164 136.5t66.5 118q0 37 -30 37q-41 0 -202 -181z" />
    <glyph glyph-name=".notdef" horiz-adv-x="800" 
d="M300 0v700h500v-700h-500zM550 395l170 255h-340zM580 350l170 -255v510zM380 50h340l-170 255zM350 605v-510l170 255z" />
    <glyph glyph-name=".null" horiz-adv-x="0" 
 />
    <glyph glyph-name="nonmarkingreturn" horiz-adv-x="333" 
 />
    <glyph glyph-name="space" unicode=" " 
 />
    <glyph glyph-name="exclam" unicode="!" horiz-adv-x="444" 
d="M520 560h112q-219 -238 -452 -430l-6 6q31 39 157 189t189 235zM48 40q0 20 17.5 38t36.5 18q42 0 42 -40q0 -20 -17.5 -38t-36.5 -18q-42 0 -42 40z" />
    <glyph glyph-name="quotedbl" unicode="&#x22;" horiz-adv-x="370" 
d="M451 588l-13 76q-1 5 -2 12t-2 12.5t-1 10.5q0 11 10 20t26 9t26 -9t10 -20l-5 -35l-13 -76q-5 -28 -18 -28t-18 28zM315 588l-13 76l-5 35q0 11 10 20t26 9t26 -9t10 -20l-5 -35l-13 -76q-5 -28 -18 -28t-18 28z" />
    <glyph glyph-name="numbersign" unicode="#" horiz-adv-x="600" 
d="M383 220l88 132h-130l-88 -132h130zM61 0l122 184h-102l25 36h101l88 132h-103l25 36h102l122 184h46l-122 -184h130l122 184h46l-122 -184h102l-25 -36h-101l-88 -132h103l-25 -36h-102l-122 -184h-46l122 184h-130l-122 -184h-46z" />
    <glyph glyph-name="dollar" unicode="$" horiz-adv-x="888" 
d="M532 358l-265 -313q74 -45 163 -45q107 0 155.5 47t48.5 107q0 38 -17 77.5t-33.5 62t-51.5 64.5zM160 -44l77 91q-56 37 -87.5 89.5t-31.5 110.5q0 37 21.5 62t52.5 25q27 0 44.5 -18.5t17.5 -49.5q0 -26 -17 -45t-47 -19q-39 0 -58 40h-2q1 -56 32 -103.5t83 -81.5
l271 321q-41 50 -62.5 92t-21.5 92q0 56 23 98.5t61 66.5t81 35.5t89 11.5q70 0 135 -35l91 107l20 -14l-89 -105q52 -31 84.5 -79.5t32.5 -107.5q0 -35 -17.5 -53.5t-46.5 -18.5q-27 0 -44.5 17t-17.5 41t16.5 40t43.5 16q37 0 52 -26l2 2q-12 98 -112 160l-241 -286
q2 -3 16.5 -21.5t18 -23t16.5 -21.5t17 -25t13 -24t12.5 -27t9 -26.5t7 -30.5t1.5 -31q0 -87 -69.5 -150.5t-198.5 -63.5q-100 0 -180 47l-78 -93zM579 452l235 278q-61 32 -122 32q-68 0 -122 -43.5t-54 -120.5q0 -65 63 -146z" />
    <glyph glyph-name="percent" unicode="%" horiz-adv-x="1038" 
d="M1034 364h12q5 -54 -48 -88q-49 -104 -146 -196t-184 -92q-32 0 -52 20.5t-20 57.5q0 64 58 139.5t135 125t133 49.5q35 0 62 -10l-4 -6q-16 4 -40 4q-40 0 -128 -92q-107 -112 -143.5 -160.5t-36.5 -78.5q0 -17 9 -27t21 -10q75 0 172.5 92t145.5 184q-50 0 -50 39
q0 13 10 23t23 10q39 0 39 -56q32 23 32 72zM594 568h12q5 -54 -48 -88q-49 -104 -146 -196t-184 -92q-32 0 -52 20.5t-20 57.5q0 64 58 139.5t135 125t133 49.5q35 0 62 -10l-4 -6q-16 4 -40 4q-40 0 -128 -92q-107 -112 -143.5 -160.5t-36.5 -78.5q0 -17 9 -27t21 -10
q75 0 172.5 92t145.5 184q-50 0 -50 39q0 13 10 23t23 10q39 0 39 -56q32 23 32 72zM240 -30l622 632h36l-622 -632h-36z" />
    <glyph glyph-name="ampersand" unicode="&#x26;" horiz-adv-x="1000" 
d="M742 606q0 52 -48 52q-45 0 -78.5 -47t-33.5 -109q0 -32 8 -52q152 66 152 156zM296 -20l4 -12q-27 12 -73 12q-52 0 -78.5 -30.5t-26.5 -75.5q0 -43 46 -80.5t126 -37.5q101 0 209 111.5t125 230.5h-2q-46 -57 -93 -83.5t-115 -26.5q-93 0 -144.5 55.5t-51.5 120.5
q0 51 29 96.5t81 80t111.5 60t130.5 45.5q-4 24 -4 57q0 73 39.5 120t80.5 47q31 0 47.5 -17.5t16.5 -44.5q0 -57 -50 -107.5t-110 -74.5q52 -146 73 -263q38 52 73 108.5t49.5 82t35 43t45.5 17.5q27 0 43.5 -15t16.5 -43q0 -24 -17.5 -43t-46.5 -19q-50 0 -56 64h-2
q-88 -146 -136 -210q8 -32 8 -60q0 -82 -35 -151.5t-89.5 -113t-118.5 -67.5t-125 -24q-100 0 -151 45t-51 99q0 52 32.5 84t83.5 32q43 0 70 -12zM330 121q0 -44 26 -82.5t82 -38.5q98 0 192 122q2 11 2 28q0 36 -7.5 73t-22.5 94t-24 99q-112 -57 -180 -127.5t-68 -167.5z
" />
    <glyph glyph-name="quotesingle" unicode="'" 
d="M382 588l-13 76l-5 35q0 11 10 20t26 9t26 -9t10 -20l-5 -35l-13 -76q-5 -28 -18 -28t-18 28z" />
    <glyph glyph-name="parenleft" unicode="(" horiz-adv-x="444" 
d="M74 -106l12 46q31 124 90 240.5t127 203t145.5 159t144.5 117.5t125 70l28 12l4 -6l-36 -26q-102 -73 -231 -215.5t-228 -281t-131 -217.5l-42 -106z" />
    <glyph glyph-name="parenright" unicode=")" horiz-adv-x="444" 
d="M520 738l-12 -46q-31 -124 -90 -240.5t-127 -203t-145.5 -159t-144.5 -117.5t-125 -70l-28 -12l-4 6l36 26q102 73 231 215.5t228 281t131 217.5l42 106z" />
    <glyph glyph-name="asterisk" unicode="*" horiz-adv-x="370" 
d="M312 452l72 112h-134v24h134l-64 116l20 12l64 -116l64 116l20 -12l-64 -116h134v-24h-134l72 -112l-20 -12l-72 114l-72 -114z" />
    <glyph glyph-name="plus" unicode="+" horiz-adv-x="666" 
d="M349 277v229h48v-229h229v-48h-229v-229h-48v229h-229v48h229z" />
    <glyph glyph-name="comma" unicode="," 
d="M10 -66v12q53 32 76 57l-2 2q-10 -5 -24 -5t-24 8.5t-10 24.5q0 23 17 43t40 20q16 0 27.5 -11.5t11.5 -34.5q0 -30 -35 -62.5t-77 -53.5z" />
    <glyph glyph-name="hyphen" unicode="-" horiz-adv-x="518" 
d="M191 172l6 36q44 -6 66 -6q23 0 69 6l-6 -36q-44 6 -66 6q-23 0 -69 -6z" />
    <glyph glyph-name="period" unicode="." 
d="M26 40q0 20 17.5 38t36.5 18q42 0 42 -40q0 -20 -17.5 -38t-36.5 -18q-42 0 -42 40z" />
    <glyph glyph-name="slash" unicode="/" horiz-adv-x="444" 
d="M706 728h52q-112 -110 -328 -330q-24 -24 -90.5 -89.5t-103.5 -102.5t-94.5 -99t-105.5 -119h-52q710 728 722 740z" />
    <glyph glyph-name="zero" unicode="0" horiz-adv-x="592" 
d="M708 552h12q0 -47 -15.5 -78t-54.5 -46q-30 -73 -84 -150.5t-119.5 -142t-143 -106t-145.5 -41.5q-40 0 -65 24.5t-32 51.5t-7 56q0 90 89 201.5t207 187t202 75.5q55 0 86 -18l-4 -10q-29 16 -58 16q-33 0 -78 -35.5t-166 -162.5q-230 -241 -230 -330q0 -19 17.5 -31.5
t38.5 -12.5q57 0 132 48t140.5 116.5t118 137.5t77.5 118q-76 0 -76 58q0 22 15.5 36t38.5 14q54 0 54 -54q0 -16 -2 -26h2q50 26 50 104z" />
    <glyph glyph-name="one" unicode="1" horiz-adv-x="482" 
d="M16 0l434 476h-2q-156 -106 -304 -170l-10 10q253 104 402 256h114l-508 -572h-126z" />
    <glyph glyph-name="two" unicode="2" horiz-adv-x="556" 
d="M-82 0l-12 10q91 83 124 105q68 47 221 97q83 27 147 72t96.5 90.5t48 80.5t15.5 55q0 26 -18.5 44t-45.5 18q-50 0 -122 -64.5t-72 -121.5q0 -14 10 -25t26 -11q82 0 130 126h8q-8 -50 -47.5 -94t-86.5 -44q-28 0 -46 18t-18 44q0 70 71 127t141 57q52 0 97 -34t45 -96
q0 -82 -78 -158q-42 -41 -100 -66t-117 -37t-118.5 -24t-120.5 -36t-106 -63h4q46 30 120 30q32 0 92.5 -20t91.5 -20q39 0 60 13t36 49h6q-37 -134 -156 -134q-58 0 -130.5 26t-107.5 26q-24 0 -43 -8t-45 -32z" />
    <glyph glyph-name="three" unicode="3" horiz-adv-x="556" 
d="M266 292v16h80q50 0 73.5 10t62.5 46q27 25 49.5 66.5t22.5 77.5q0 64 -60 64q-48 0 -114 -66.5t-66 -97.5q0 -20 13.5 -33t30.5 -13q66 0 120 104l10 -4q-18 -46 -52 -79t-74 -33q-29 0 -44.5 17.5t-15.5 44.5q0 65 62.5 118.5t129.5 53.5q51 0 91.5 -36t40.5 -86
q0 -57 -41 -98.5t-94 -59.5t-109 -20v-2q22 -7 36 -36t14 -56q0 -54 -26.5 -94.5t-70.5 -63t-91.5 -33.5t-97.5 -11q-84 0 -122 35t-38 82q0 42 22.5 73.5t55.5 31.5q22 0 37 -16t15 -38q0 -24 -14.5 -39t-36.5 -15q-36 0 -51 48q-16 -24 -16 -48q0 -45 41 -73.5t90 -28.5
q37 0 76 45q99 114 127 152.5t28 63.5q0 35 -64 35q-18 0 -30 -4z" />
    <glyph glyph-name="four" unicode="4" horiz-adv-x="556" 
d="M108 0l166 178h-266l16 26l624 368h108l-340 -370h82l-14 -24h-90l-164 -178h-122zM297 202l301 322h-2l-546 -320v-2h247z" />
    <glyph glyph-name="five" unicode="5" horiz-adv-x="556" 
d="M216 314l242 264h14l-20 -24h2q19 18 44 24q19 6 50 6q26 0 75.5 -16t74.5 -16q24 0 60 32l8 -4q-25 -36 -62.5 -68t-79.5 -32q-16 0 -71.5 16t-88.5 16q-47 0 -105 -63l-87 -95h2q37 20 84 20q59 0 98.5 -37.5t39.5 -96.5q0 -96 -110 -174t-248 -78q-61 0 -95.5 32
t-34.5 84q0 44 21 75t57 31q24 0 39 -15.5t15 -41.5q0 -21 -15 -36t-35 -15q-17 0 -28 12t-17 24t-9 12t-6.5 -6.5t-6.5 -19.5t-3 -28q0 -46 36 -71t76 -25q35 0 69 24.5t83 77.5q76 81 102 125t26 75q0 30 -19.5 45t-48.5 15q-30 0 -65 -18t-53 -42z" />
    <glyph glyph-name="six" unicode="6" horiz-adv-x="556" 
d="M102 42q0 -42 43 -42q25 0 48.5 16t56.5 52q88 93 116 139t28 83q0 24 -11.5 35t-28.5 11q-43 0 -116 -80q-77 -85 -106.5 -132t-29.5 -82zM431 457l-115 -121h2q17 12 43 12q35 0 64 -32t29 -86q0 -33 -18.5 -73t-52.5 -78.5t-90.5 -64.5t-122.5 -26q-116 0 -116 108
q0 89 89 205.5t213.5 199.5t217.5 83q46 0 78 -26.5t32 -73.5q0 -40 -25.5 -70t-64.5 -30q-23 0 -39.5 15.5t-16.5 39.5t15.5 38.5t39.5 14.5q53 0 53 -64q26 26 26 56q0 37 -24 59.5t-57 22.5q-37 0 -69 -23t-91 -86z" />
    <glyph glyph-name="seven" unicode="7" horiz-adv-x="482" 
d="M648 580l14 -8q-194 -205 -478 -572h-144q73 78 148.5 153.5t121 118.5t130.5 122t122 114h-2q-47 -36 -90 -36q-20 0 -82 20t-90 20q-38 0 -112 -92l-10 8q35 55 98 105.5t104 50.5q36 0 96 -20t96 -20q44 0 78 36z" />
    <glyph glyph-name="eight" unicode="8" horiz-adv-x="556" 
d="M672 564h12q0 -69 -46 -102q-43 -136 -196 -138q12 -68 12 -100q0 -48 -17.5 -88.5t-45.5 -67t-63 -45.5t-69.5 -27t-66.5 -8q-61 0 -99.5 35t-38.5 101q0 61 45.5 108.5t106 69.5t118.5 22q-10 48 -10 81q0 43 17.5 79t44.5 57t55 32t53 11q26 0 56 -10v-12
q-28 10 -48 10q-31 0 -50.5 -22t-19.5 -61q0 -77 18 -153q64 0 113.5 29t64.5 87q-8 -2 -22 -2q-31 0 -49.5 14.5t-18.5 40.5q0 24 16 38.5t37 14.5q30 0 44.5 -22.5t14.5 -55.5q32 25 32 84zM346 176q0 67 -20 136q-85 0 -166.5 -73.5t-81.5 -146.5q0 -39 31.5 -65.5
t80.5 -26.5q22 0 46.5 9t50.5 27.5t42.5 55t16.5 84.5z" />
    <glyph glyph-name="nine" unicode="9" horiz-adv-x="556" 
d="M560 530q0 42 -43 42q-25 0 -48.5 -16t-56.5 -52q-88 -93 -116 -139t-28 -83q0 -24 11.5 -35t28.5 -11q43 0 116 80q77 85 106.5 132t29.5 82zM231 115l115 121h-2q-17 -12 -43 -12q-35 0 -64 32t-29 86q0 33 18.5 73t52.5 78.5t90.5 64.5t122.5 26q116 0 116 -108
q0 -89 -89 -205.5t-213.5 -199.5t-217.5 -83q-46 0 -78 26.5t-32 73.5q0 40 25.5 70t64.5 30q23 0 39.5 -15.5t16.5 -39.5t-15.5 -38.5t-39.5 -14.5q-53 0 -53 64q-26 -26 -26 -56q0 -37 24 -59.5t57 -22.5q37 0 69 23t91 86z" />
    <glyph glyph-name="colon" unicode=":" 
d="M212 238q0 20 17.5 38t36.5 18q42 0 42 -40q0 -20 -17.5 -38t-36.5 -18q-42 0 -42 40zM26 40q0 20 17.5 38t36.5 18q42 0 42 -40q0 -20 -17.5 -38t-36.5 -18q-42 0 -42 40z" />
    <glyph glyph-name="semicolon" unicode=";" 
d="M10 -66v12q53 32 76 57l-2 2q-10 -5 -24 -5t-24 8.5t-10 24.5q0 23 17 43t40 20q16 0 27.5 -11.5t11.5 -34.5q0 -30 -35 -62.5t-77 -53.5zM212 238q0 20 17.5 38t36.5 18q42 0 42 -40q0 -20 -17.5 -38t-36.5 -18q-42 0 -42 40z" />
    <glyph glyph-name="less" unicode="&#x3c;" horiz-adv-x="666" 
d="M130 226v54l506 234v-56l-444 -205l444 -207v-54z" />
    <glyph glyph-name="equal" unicode="=" horiz-adv-x="666" 
d="M120 325v48h506v-48h-506zM120 133v48h506v-48h-506z" />
    <glyph glyph-name="greater" unicode="&#x3e;" horiz-adv-x="666" 
d="M180 -8v56l444 205l-444 207v54l506 -234v-54z" />
    <glyph glyph-name="question" unicode="?" horiz-adv-x="592" 
d="M488 472h12q0 -51 -38.5 -90.5t-89.5 -39.5q-29 0 -47.5 18.5t-18.5 49.5q0 73 61 123.5t135 50.5q67 0 110.5 -41.5t43.5 -98.5q0 -61 -42.5 -112.5t-105.5 -81.5t-132 -38q-34 -4 -68 -19.5t-46 -24t-42 -32.5l-14 6q36 43 134 92q244 122 244 262q0 76 -75 76
q-47 0 -113 -61.5t-66 -110.5q0 -21 13.5 -33.5t30.5 -12.5q43 0 78.5 37t35.5 81zM98 40q0 20 17.5 38t36.5 18q42 0 42 -40q0 -20 -17.5 -38t-36.5 -18q-42 0 -42 40z" />
    <glyph glyph-name="at" unicode="@" horiz-adv-x="900" 
d="M664 434q0 31 -13.5 47.5t-35.5 16.5q-52 0 -105.5 -64t-53.5 -162q0 -28 17 -48t41 -20q47 0 98.5 74.5t51.5 155.5zM683 484l13 54h66l-72 -269q-6 -22 -6 -38q0 -15 10 -27t31 -12q71 0 110 68.5t39 149.5q0 47 -20.5 95.5t-58.5 91t-99.5 69t-135.5 26.5
q-140 0 -229 -96t-89 -266q0 -122 91.5 -214t238.5 -92q112 0 212 52l14 -28q-108 -60 -226 -60q-100 0 -180 34.5t-126.5 88t-71 113t-24.5 116.5q0 170 113.5 279t276.5 109q148 0 249 -90t101 -226q0 -57 -22 -114.5t-69 -99.5t-107 -42q-33 0 -56 17t-30.5 32.5
t-9.5 26.5h-2q-58 -76 -134 -76q-40 0 -68 27.5t-28 78.5q0 122 72 203t147 81q25 0 46 -16.5t32 -45.5h2z" />
    <glyph glyph-name="A" unicode="A" horiz-adv-x="1222" 
d="M494 332l10 18q25 0 76 -1t76 -1q71 85 119 138.5t111.5 116.5t113.5 94t88 31q41 0 57.5 -20t16.5 -62q0 -52 -36.5 -109.5t-153.5 -188.5q15 0 46 2t46 2l-8 -20q-16 0 -49 2t-49 2q-90 -98 -126 -150.5t-36 -95.5q0 -46 24.5 -68t77.5 -22q51 0 121.5 46t120.5 108
t50 106q0 28 -18.5 44t-39.5 16q-51 0 -100 -48.5t-76 -103.5h-6q15 62 68 113t111 51q35 0 54 -21.5t19 -51.5q0 -47 -20.5 -90.5t-53.5 -75.5t-72.5 -56t-79 -36.5t-72.5 -12.5q-74 0 -127 45t-53 109q0 14 3 28.5t6 25t12 25.5t13 22.5t18 24.5t17.5 21.5t21 24
t19.5 22.5h-174q-162 -184 -273 -266t-222 -82q-76 0 -120.5 34.5t-44.5 85.5q0 24 17.5 42t42.5 18q23 0 41.5 -15.5t18.5 -38.5q0 -20 -17.5 -39t-44.5 -19q-8 0 -8 -8q0 -16 34.5 -32t79.5 -16q107 0 210.5 75.5t269.5 260.5q-26 0 -75.5 -2t-74.5 -2zM672 348h172
q13 18 84 94.5t128.5 148t57.5 101.5q0 11 -8 17.5t-19 6.5q-56 0 -154 -89t-261 -279z" />
    <glyph glyph-name="B" unicode="B" horiz-adv-x="1074" 
d="M668 626h12v-26q0 -106 -76.5 -190t-171.5 -84q-48 0 -78 23t-30 69q0 39 21.5 81.5t66 83t106 73t148 52.5t184.5 20q124 0 206 -30q74 27 126 30v-12q-60 -4 -108 -26q62 -28 94 -62.5t32 -93.5q0 -124 -204 -174q46 -43 46 -114q0 -116 -87 -187t-199 -71
q-48 0 -83 22.5t-35 69.5q0 64 58.5 117.5t127.5 72.5l4 -8q-67 -21 -122.5 -68t-55.5 -114q0 -24 22 -46t48 -22q52 0 112 54t99 125.5t39 122.5q0 34 -4 40q-20 -4 -72 -4q-33 0 -58.5 13t-25.5 29q0 28 46 28q69 0 120 -44q48 15 88 69t40 105q0 83 -65 123
q-57 -42 -117.5 -105t-111 -125t-104.5 -129.5t-108 -124t-112 -102.5t-126 -72.5t-140 -26.5q-210 0 -210 115q0 26 15.5 45.5t41.5 19.5q23 0 40 -16t17 -42t-16.5 -39.5t-33 -17.5t-16.5 -9q0 -8 14.5 -17.5t49.5 -18t82 -8.5q54 0 103.5 27t93.5 73.5t89 104.5t98.5 125
t112 129t140 122.5t173.5 100.5v2q-83 26 -198 26q-123 0 -235 -42t-178.5 -109t-66.5 -139q0 -41 24 -61.5t66 -20.5q76 0 159 92t83 166v30zM822 392q0 -10 20.5 -20t53.5 -10q50 0 64 8q-41 38 -102 38q-36 0 -36 -16z" />
    <glyph glyph-name="C" unicode="C" horiz-adv-x="704" 
d="M922 716q-56 0 -114 -20t-101 -46t-97 -74t-83.5 -78.5t-80.5 -85.5q-6 -6 -8.5 -9t-7 -8t-8.5 -9q102 2 210 31t188 69.5t132 87.5t52 84q0 31 -24.5 44.5t-57.5 13.5zM558 676l-4 -8q-5 2 -23 10.5t-23.5 10.5t-21 8.5t-24.5 8.5t-23.5 5t-29 4t-31.5 1
q-91 0 -145.5 -47t-54.5 -127q0 -109 116 -142q72 75 132.5 127t137 101.5t160.5 74.5t176 25q116 0 116 -70q0 -41 -54 -91t-137.5 -92.5t-195.5 -71t-217 -29.5q-184 -201 -184 -304q0 -25 20 -47.5t70 -22.5q66 0 132 30.5t110 72t72 82t28 63.5q0 24 -18 36t-45 12
q-58 0 -112.5 -40t-112.5 -110l-6 6q45 67 109 111.5t117 44.5q80 0 80 -72q0 -32 -20.5 -72.5t-58.5 -81t-105 -67.5t-148 -27q-49 0 -84.5 15t-53.5 40t-26 51t-8 54q0 94 119 242q-157 42 -157 166q0 67 70.5 119.5t171.5 52.5q29 0 52 -2.5t45 -10t30.5 -10.5t32 -15.5
t26.5 -13.5z" />
    <glyph glyph-name="D" unicode="D" horiz-adv-x="852" 
d="M1076 680l6 -12q-97 -9 -180 -76q28 -63 28 -132q0 -72 -40 -155.5t-105 -153.5t-156.5 -116.5t-184.5 -46.5q-108 0 -175 19q-64 -19 -164 -19q-93 0 -93 43q0 22 24.5 35.5t72.5 13.5q65 0 209 -34q45 20 87.5 67.5t83 108.5t88 127t123.5 138t168 127
q-86 102 -258 102q-78 0 -150 -26t-123 -66.5t-90 -89.5t-58 -95.5t-19 -83.5q0 -28 21 -52.5t65 -24.5q61 0 118 27t92.5 65t56.5 75.5t21 61.5q0 20 -11.5 33.5t-31.5 13.5q-95 0 -181 -140l-10 5q31 57 84 102t104 45q58 0 58 -61q0 -29 -22.5 -69t-60 -78.5t-95 -65
t-118.5 -26.5q-63 0 -100.5 34t-37.5 92q0 51 35.5 109t96.5 109t154.5 84.5t197.5 33.5q179 0 274 -106q93 58 196 58zM24 31q0 -13 19.5 -22t56.5 -9q95 0 144 14v2q-137 40 -185 40q-15 0 -25 -8t-10 -17zM918 464q0 53 -24 118q-32 -28 -74 -85t-85.5 -117t-97.5 -124
t-129 -122.5t-160 -95.5v-2q75 -24 148 -24q79 0 178.5 69.5t171.5 177.5t72 205z" />
    <glyph glyph-name="E" unicode="E" horiz-adv-x="704" 
d="M840 716q-82 0 -193.5 -79.5t-186.5 -166.5q85 5 189 34.5t182 75.5t78 90q0 46 -69 46zM576 384q0 16 -26.5 25t-47.5 9q-27 0 -44 -8q9 -17 36 -30.5t50 -13.5q32 0 32 18zM368 168l-10 6q104 140 242 140q40 0 63 -22.5t23 -61.5q0 -80 -108.5 -161t-253.5 -81
q-100 0 -161 49t-61 129q0 55 32.5 103t83.5 79t104.5 50.5t103.5 27.5q-10 14 -13 29q-92 0 -157.5 33.5t-65.5 101.5q0 55 53.5 90.5t121.5 35.5q69 0 154 -25l-5 -11q-82 24 -137 24q-60 0 -99.5 -34t-39.5 -76q0 -123 174 -127q1 65 41 117t102.5 82t132 46t136.5 16
q52 0 74.5 -14.5t22.5 -44.5q0 -42 -65.5 -88t-175.5 -80.5t-227 -42.5q-5 -7 -5 -13q0 -9 4 -17q16 2 37 2q13 0 27 -2t31.5 -6.5t29 -14.5t11.5 -25q0 -13 -13 -20.5t-30 -7.5q-74 0 -105 50q-80 -45 -179 -149t-99 -161q0 -32 37 -63t101 -31q75 0 145.5 28t116 68
t73 80.5t27.5 67.5q0 58 -64 58q-130 0 -230 -134z" />
    <glyph glyph-name="F" unicode="F" horiz-adv-x="778" 
d="M478 604l8 4q30 -60 30 -104q0 -86 -58.5 -147t-137.5 -61q-110 0 -110 100q0 88 68.5 165.5t177 122t224.5 44.5q94 0 231 -15q139 -15 155 -15q103 0 150 38l8 -4q-44 -61 -92.5 -83.5t-127.5 -22.5q-68 0 -212 15t-228 15q-146 0 -244 -77t-98 -173q0 -43 21.5 -70.5
t66.5 -27.5q66 0 124 65t58 147q0 21 -3 41.5t-6.5 31.5t-4.5 11zM900 394q-25 0 -62.5 -27.5t-53.5 -54.5q142 25 142 68q0 14 -26 14zM744 300h-80q-51 -65 -83 -102t-81.5 -83t-93.5 -69.5t-105.5 -40.5t-132.5 -17q-91 0 -131.5 33t-40.5 75q0 27 16 45.5t42 18.5
q25 0 40.5 -15t15.5 -37q0 -25 -17.5 -37t-35 -15t-17.5 -8q0 -19 35 -33.5t99 -14.5q80 0 153.5 63.5t204.5 232.5q-115 -13 -196 -98l-8 5q73 91 212 105q55 63 89 99t79.5 76t86.5 61t95.5 37t119.5 21l6 -12q-25 -3 -48.5 -9.5t-48 -21.5t-41.5 -25t-43 -36t-38.5 -38
t-41.5 -47t-38.5 -47t-42.5 -54h78q40 44 82 69t68 25q36 0 36 -28q0 -31 -57.5 -53.5t-100.5 -24.5q-9 -9 -27 -40t-21 -42l-54 -26q24 60 66 108z" />
    <glyph glyph-name="G" unicode="G" horiz-adv-x="778" 
d="M590 702l-4 -12q-101 26 -158 26q-86 0 -145 -44t-59 -126q0 -58 44 -95.5t108 -46.5q31 86 130 162.5t215.5 119t212.5 42.5q140 0 140 -86q0 -55 -95 -118.5t-225 -105t-230 -41.5q-17 0 -49 2q-47 -53 -47 -101q0 -60 78 -60q65 0 107 25t79 69q21 26 54 32t122 6v-6
q-36 -14 -73.5 -57t-74.5 -92t-85.5 -96.5t-128.5 -79t-183 -31.5q-95 0 -153 45.5t-58 97.5q0 34 21 53.5t47 19.5q25 0 39.5 -14.5t14.5 -37.5q0 -24 -15 -40t-41 -16q-9 0 -16.5 2.5t-12 5t-5.5 2.5q-8 0 -8 -6q0 -25 51 -62.5t126 -37.5q43 0 91 27.5t78.5 56.5t79.5 82
t66 70h-2q-68 -30 -112 -30q-69 0 -107.5 40t-38.5 103q0 27 5 42q-94 20 -145.5 59.5t-51.5 117.5q0 52 44 90.5t98.5 54t105.5 15.5q66 0 166 -26zM522 389q96 0 224 40.5t222 101t94 111.5q0 35 -32 54.5t-76 19.5q-40 0 -75 -8t-73.5 -29.5t-68 -42.5t-76.5 -66
t-79.5 -78.5t-95.5 -100.5q22 -2 36 -2z" />
    <glyph glyph-name="H" unicode="H" horiz-adv-x="1260" 
d="M720 202h-42q42 63 79 114q-27 -2 -69 -10q-93 -140 -215.5 -229t-266.5 -89q-28 0 -57 5t-61.5 17t-53 37.5t-20.5 60.5q0 24 15.5 44t44.5 20q26 0 43 -16t17 -41q0 -29 -18.5 -41.5t-37 -15.5t-18.5 -10q0 -6 15.5 -17t50 -21t75.5 -10q32 0 62.5 9t63.5 33t55 42.5
t60.5 63.5t56.5 67.5t63 80.5q-147 -14 -272 -126l-6 6q105 111 286 132q114 154 346 340v2q-3 -1 -20 -8.5t-22 -9.5t-20.5 -8t-22.5 -8t-21.5 -7t-24 -6.5t-22.5 -4t-25 -3.5t-24 -1q-43 0 -118 43t-125 43q-59 0 -131 -59t-72 -138q0 -46 33.5 -72.5t88.5 -26.5
q75 0 148 47.5t100 114.5l8 -4q-30 -82 -92.5 -132t-147.5 -50q-64 0 -107 31.5t-43 94.5q0 91 99 166.5t221 75.5q50 0 129.5 -43t115.5 -43t87.5 20t89.5 54l4 -12q-165 -144 -306 -386l72 12q54 73 114 144l8 -4q-48 -72 -90 -138q10 1 30 3.5t30 4.5q106 146 264 267
t221 121q49 0 49 -56q0 -58 -64 -130t-162.5 -128t-193.5 -74q-108 -136 -136 -184t-28 -82q0 -36 28 -55t64 -19q64 0 140.5 42.5t129 102t52.5 107.5q0 30 -15.5 42t-34.5 12q-92 0 -194 -122l-8 4q95 130 208 130q33 0 50.5 -23t17.5 -57q0 -33 -25 -75t-67 -81.5
t-108.5 -66.5t-139.5 -27q-66 0 -103 38t-37 104q0 72 85 198q-13 -1 -34 -4t-27 -4q-31 -45 -72 -118zM1376 681q0 13 -7.5 21t-17.5 8q-27 0 -69 -30.5t-97 -89.5t-97.5 -109.5t-103.5 -126.5q83 15 177 76.5t154.5 133t60.5 117.5z" />
    <glyph glyph-name="I" unicode="I" horiz-adv-x="666" 
d="M968 728l8 -12q-53 -31 -113 -107t-105.5 -154.5t-103 -166t-102.5 -132.5q-168 -168 -380 -168q-24 0 -49.5 5t-52 16.5t-43.5 35t-17 55.5q0 27 17 47.5t43 20.5q25 0 42.5 -17t17.5 -46q0 -26 -17 -37t-34 -14.5t-17 -9.5q0 -7 9.5 -16t37.5 -18.5t67 -9.5
q165 0 332 248q90 134 158.5 208.5t227.5 213.5l-2 4q-117 -56 -187 -56q-39 0 -122.5 19t-124.5 19q-77 0 -158.5 -77.5t-81.5 -172.5q0 -114 96 -114q76 0 145 85t75 175h9q3 -21 3 -40q0 -95 -69 -163.5t-159 -68.5q-50 0 -81 31t-31 97q0 71 54 146.5t135 124.5t155 49
q52 0 150 -19t136 -19q72 0 132 38z" />
    <glyph glyph-name="J" unicode="J" horiz-adv-x="852" 
d="M16 -190q0 -30 16 -48t46 -18q54 0 131 64t211 228l-2 2q-402 -93 -402 -228zM1082 708l8 -12q-75 -51 -150.5 -137t-128.5 -166t-124 -173.5t-133 -151.5l2 -2q138 15 227 90t89 176q0 17 -6 38h6q12 -24 12 -64q0 -56 -23 -100t-58.5 -71.5t-82 -45.5t-89.5 -25t-85 -8
q-37 -46 -94.5 -100t-123.5 -105t-134.5 -85t-117.5 -34q-34 0 -53 19.5t-19 50.5q0 76 102.5 137t321.5 115q123 173 238 292.5t302 277.5v2q-69 -36 -142 -36q-44 0 -129 33t-137 33q-84 0 -178 -84t-94 -166q0 -49 25 -76.5t73 -27.5q90 0 170 82t80 156v24h8
q4 -12 4 -40q0 -76 -74 -155t-178 -79q-51 0 -85.5 26.5t-34.5 75.5q0 76 59.5 155.5t145 130t159.5 50.5q56 0 114 -19.5t107.5 -39t84.5 -19.5q26 0 48 6.5t31 11t31 21z" />
    <glyph glyph-name="K" unicode="K" horiz-adv-x="1222" 
d="M584 542l10 -4q-25 -67 -91.5 -127.5t-132.5 -60.5q-58 0 -101 36t-43 94t33 108t80.5 79t93.5 45t79 16q70 0 180 -38t132 -38q63 0 170 76l4 -12q-51 -28 -98.5 -77.5t-74 -89t-58.5 -93.5t-40 -66l2 -2q7 4 23 4q64 0 107 -47q44 19 87.5 66.5t80 99.5t78 102
t99.5 82.5t127 32.5q34 0 56.5 -18t22.5 -46q0 -25 -13.5 -40.5t-38.5 -15.5q-56 0 -56 56q0 17 9 27t18 13.5t9 5.5q0 6 -18 6q-39 0 -79.5 -33.5t-79.5 -84.5t-80 -104.5t-96 -99.5t-113 -62q24 -30 24 -78q0 -26 -31 -66.5t-62 -77t-31 -54.5q0 -31 27 -43.5t59 -12.5
q57 0 117.5 30t103.5 72t71 86t28 72q0 20 -15.5 35t-40.5 15q-46 0 -101.5 -46t-80.5 -102l-8 2q21 59 80 108.5t112 49.5q28 0 47 -20t19 -50q0 -42 -22 -87.5t-62.5 -85.5t-106 -65.5t-143.5 -25.5q-56 0 -106 32.5t-50 93.5q0 28 29.5 65t69 79t53.5 68q-48 -12 -72 -12
q-27 0 -50 9t-26 29q-36 -50 -60 -81.5t-60.5 -74t-65.5 -69t-68.5 -56t-77.5 -45.5t-85 -27t-97 -11q-79 0 -132.5 33.5t-53.5 93.5q0 27 16.5 46t43.5 19t40.5 -16.5t13.5 -39.5q0 -27 -17 -42.5t-34 -21t-17 -8.5q0 -8 14 -19.5t45.5 -22t70.5 -10.5q75 0 125.5 35
t122.5 127q154 195 241.5 292t200.5 184l-2 2q-81 -36 -146 -36q-48 0 -148 38t-144 38q-63 0 -127.5 -59.5t-64.5 -144.5q0 -49 33 -75.5t83 -26.5q38 0 73.5 14t59 32.5t45.5 44.5t32.5 43t19.5 34zM716 357q0 -13 17.5 -22t45.5 -9q30 0 68 14q-11 14 -40 27t-58 13
q-33 0 -33 -23z" />
    <glyph glyph-name="L" unicode="L" horiz-adv-x="1000" 
d="M700 196l-6 8q90 100 178 100t88 -88q0 -95 -106 -161.5t-263 -66.5q-96 0 -244 51q-129 -51 -225 -51q-124 0 -124 64q0 23 23.5 39.5t74.5 16.5q105 0 231 -49q40 35 76.5 83.5t76.5 110.5t66 95q-76 0 -141.5 17.5t-112 58.5t-46.5 100q0 100 78 152t194 52
q69 0 120.5 -12.5t115.5 -47.5l-8 -12q-68 37 -117 48.5t-111 11.5t-108 -18t-70 -47.5t-35 -59t-11 -59.5q0 -88 69.5 -130t190.5 -42q88 135 253.5 266.5t274.5 131.5q38 0 59 -13t21 -49q0 -50 -69.5 -120.5t-182.5 -133t-224 -86.5q-135 -207 -323 -310q142 -46 221 -46
q66 0 149.5 38t143 95.5t59.5 106.5q0 52 -58 52q-35 0 -67.5 -14t-53 -30.5t-57.5 -51.5zM10 51q0 -22 29 -36.5t83 -14.5q40 0 95 13t97 37q-117 46 -214 46q-90 0 -90 -45zM1092 746q-42 0 -85 -23.5t-103 -89.5t-90 -104t-111 -145q-7 -9 -11 -14l2 -2q104 25 212 86
t176 128.5t68 113.5q0 50 -58 50z" />
    <glyph glyph-name="M" unicode="M" horiz-adv-x="1444" 
d="M1178 164l-4 4q25 60 77.5 107t112.5 47q32 0 52 -19t20 -53q0 -23 -10 -54t-35 -68t-61 -68t-95 -51.5t-129 -20.5q-71 0 -105.5 36t-34.5 98t34.5 126t130 171t289.5 297h-2q-57 -9 -124.5 -54.5t-130.5 -110t-128.5 -141t-126.5 -150.5t-115 -135.5t-103 -99
t-83 -37.5q-29 0 -48 17.5t-19 53.5q0 39 18.5 80.5t65.5 100.5t96.5 114.5t142.5 160.5t173 201h-2q-45 -15 -90 -46.5t-137.5 -121.5t-253.5 -261q-65 -70 -96.5 -103t-74.5 -75t-66.5 -58.5t-55 -34.5t-58 -23t-58.5 -5q-56 0 -98 26.5t-42 79.5q0 27 16.5 44.5
t42.5 17.5q23 0 38 -15.5t15 -38.5q0 -22 -13.5 -38t-36.5 -16q-14 0 -14 -4q0 -20 28 -32t52 -12q38 0 71 10t66 30t75 58.5t89 86t117 121.5q3 3 4.5 5t4 4.5l4.5 4.5q216 226 319.5 317t156.5 91q11 0 22 -8.5t11 -25.5q0 -51 -59 -141.5t-132 -173.5t-154 -177
t-109 -138q-18 -27 -18 -48q0 -16 15 -16q27 0 74 40t103 104.5t120 142t132.5 155t134 142t129.5 104.5t114 40q34 0 34 -30q0 -28 -44.5 -90t-107.5 -136t-126 -150.5t-107.5 -147.5t-44.5 -112q0 -62 78 -62q67 0 141 48.5t120.5 111t46.5 105.5q0 22 -14.5 33.5
t-37.5 11.5q-53 0 -103 -46.5t-79 -99.5z" />
    <glyph glyph-name="N" unicode="N" horiz-adv-x="926" 
d="M898 742l4 -6q-40 -51 -54.5 -112.5t-14.5 -179.5q0 -102 -28.5 -196t-112.5 -208l2 -2q57 51 126 129t125 150.5t122 149.5t123.5 133t124 92t127.5 36q38 0 61 -14.5t23 -43.5q0 -21 -14.5 -35.5t-37.5 -14.5t-39.5 13t-16.5 33q0 17 6.5 26.5t13 12t6.5 3.5q0 8 -18 8
q-54 0 -121 -43t-135 -115.5t-127.5 -144.5t-124.5 -153t-100 -118q-120 -127 -196 -162l-6 8q43 43 56.5 81.5t20.5 133.5q13 179 38.5 282.5t98.5 202.5h-2q-69 -47 -140.5 -128.5t-124.5 -159t-126 -171t-137 -154.5q-92 -87 -189 -87q-103 0 -103 84q0 26 16 43t40 17
t38 -15.5t14 -38.5q0 -20 -7.5 -31.5t-16.5 -14t-16.5 -7.5t-7.5 -13q0 -12 40 -12q57 0 114 33.5t108 89t102.5 124t105.5 143.5t108 142t120 124t132 86z" />
    <glyph glyph-name="O" unicode="O" horiz-adv-x="704" 
d="M868 430l-10 4q39 41 55.5 72.5t16.5 71.5q0 66 -54 102t-118 36q-79 0 -193 -68.5t-211 -163t-166.5 -197.5t-69.5 -167q0 -68 33.5 -94t92.5 -26q88 0 176 34t156 87.5t122 116t83 122t29 102.5q0 50 -27 80t-80 30q-84 0 -168.5 -69.5t-84.5 -149.5q0 -31 16.5 -49
t47.5 -18q54 0 115 66.5t73 121.5h6q0 -73 -55.5 -136.5t-131.5 -63.5q-83 0 -83 79q0 87 88.5 159t177.5 72q55 0 86.5 -32.5t31.5 -87.5q0 -52 -32 -117t-89.5 -127t-128 -114.5t-155.5 -85t-165 -32.5q-97 0 -145.5 50t-48.5 140t64.5 190t163 178.5t225 130t242.5 51.5
q79 0 134 -39.5t55 -114.5q0 -44 -17.5 -74.5t-56.5 -69.5z" />
    <glyph glyph-name="P" unicode="P" horiz-adv-x="778" 
d="M600 574h12q-7 -138 -115 -230t-251 -92q-54 0 -94 27t-40 77q0 85 90.5 172.5t231.5 143.5t278 56q163 0 262 -42q52 28 98 36l4 -12q-54 -16 -82 -34q104 -58 104 -140q0 -99 -79 -152.5t-185 -53.5q-16 0 -46 2v13q22 -3 44 -3q100 0 159 60t59 142t-74 122
q-54 -37 -97 -95t-72.5 -115.5t-92 -145.5t-144.5 -170q-62 -62 -153.5 -107t-194.5 -45q-66 0 -118 31t-52 86q0 27 16.5 45t39.5 18q22 0 37 -15t15 -35q0 -25 -18 -37t-36 -15t-18 -7q0 -9 13.5 -22t43.5 -25t67 -12q106 0 186 76q44 42 91 103.5t89 121t92.5 123.5
t123.5 130.5t160 123.5q-92 38 -222 38q-117 0 -231.5 -35t-195.5 -87.5t-131 -114.5t-50 -115q0 -43 27.5 -65.5t74.5 -22.5q77 0 160.5 41t144 111t69.5 146z" />
    <glyph glyph-name="Q" unicode="Q" horiz-adv-x="704" 
d="M357 278l-11 4q11 29 36 69t64.5 87t83.5 86.5t98.5 65.5t105.5 26q53 0 83.5 -29t30.5 -85q0 -120 -82 -235t-212.5 -190.5t-269.5 -88.5v-2q24 -8 65 -28.5t75.5 -33t69.5 -12.5q50 0 120 80l4 -12q-92 -140 -194 -140q-34 0 -86 27t-97.5 54t-64.5 27q-44 0 -96 -62
l-14 6q22 31 55.5 58.5t70.5 35.5v2q-65 23 -99.5 77t-34.5 123q0 67 36.5 142.5t102.5 145.5t149.5 127t187 91t206.5 34q51 0 91 -12.5t69.5 -47t29.5 -88.5q0 -19 -11.5 -50t-34.5 -52l-8 6q42 48 42 108q0 59 -47.5 91.5t-116.5 32.5q-35 0 -61.5 -4.5t-68.5 -21
t-96 -55t-122 -99.5q-115 -107 -201.5 -233t-86.5 -189q0 -114 136 -114q94 0 161.5 32.5t159.5 116.5q107 99 178 205.5t71 169.5q0 40 -24.5 60t-65.5 20q-89 0 -197 -90t-180 -236z" />
    <glyph glyph-name="R" unicode="R" horiz-adv-x="1186" 
d="M614 612h12v-10q0 -124 -82 -211t-164 -87q-51 0 -77.5 27.5t-26.5 78.5q0 38 22.5 80.5t68.5 85t108 76.5t149.5 55t185.5 21q120 0 218 -34q47 24 86 34l4 -10q-10 -3 -74 -30q61 -23 91.5 -59.5t30.5 -96.5q0 -77 -74 -121.5t-164 -44.5q24 -34 24 -62
q0 -31 -19.5 -65t-43.5 -60t-43.5 -58.5t-19.5 -60.5q0 -60 66 -60q46 0 109 47t107 104t44 88q0 39 -42 39q-22 0 -46.5 -15t-37 -28t-34.5 -37l-6 4q65 88 123 88q55 0 55 -59q0 -89 -85.5 -166t-180.5 -77q-73 0 -108.5 39t-35.5 94q0 29 14 57t34.5 51t41.5 45t36 46
t16 46q-118 0 -118 48h-2q-116 -153 -139 -181q-135 -161 -273 -214q-81 -31 -174 -31q-86 0 -138 37.5t-52 90.5q0 25 18 44.5t44 19.5t42 -17t16 -45q0 -27 -15.5 -39.5t-31 -16t-15.5 -8.5q0 -9 13 -21t44.5 -22.5t72.5 -10.5q56 0 99.5 22t88.5 64q30 28 97.5 114
t132.5 166t172.5 171t221.5 143v2q-80 34 -218 34q-111 0 -208.5 -32.5t-157.5 -80t-94 -98t-34 -91.5q0 -86 80 -86q30 0 72 24t81 61.5t66 89t27 99.5v10zM810 442q30 0 60 -17t48 -43q63 16 113.5 68.5t50.5 114.5q0 73 -68 110q-43 -23 -120 -108t-102 -127q12 2 18 2z
M810 428q-20 0 -20 -12q0 -9 10 -17t35 -14.5t61 -6.5q-8 23 -34 36.5t-52 13.5z" />
    <glyph glyph-name="S" unicode="S" horiz-adv-x="666" 
d="M758 642l-6 -10q-88 52 -218 52q-100 0 -160 -53.5t-60 -126.5q0 -78 63.5 -117t148.5 -39q29 0 52 4q90 126 253.5 251t276.5 125q72 0 72 -60q0 -62 -73.5 -129.5t-180 -119t-220.5 -81.5q-48 -69 -101.5 -127.5t-119 -110.5t-142.5 -82t-155 -30q-67 0 -121.5 32.5
t-54.5 82.5q0 28 16 46.5t46 18.5q25 0 41.5 -16t16.5 -41q0 -21 -14.5 -36t-32.5 -15q-21 0 -21 -14q0 -7 14 -17.5t43.5 -19.5t64.5 -9q54 0 101.5 20.5t87.5 60.5t68.5 76.5t66 90.5t58.5 80q-30 -4 -47 -4q-93 0 -174 50t-81 126q0 80 73.5 138t206.5 58q124 0 212 -54z
M1168 666q0 50 -54 50q-44 0 -87 -21.5t-83.5 -62.5t-73 -81.5t-76.5 -97t-74 -89.5h2q98 27 197.5 73t174 109.5t74.5 119.5z" />
    <glyph glyph-name="T" unicode="T" horiz-adv-x="666" 
d="M1014 602l4 -12q-93 -2 -202 -116q-44 -46 -97.5 -111.5t-90 -113.5t-88 -100t-100.5 -85t-118 -54.5t-150 -21.5q-77 0 -124.5 25.5t-47.5 77.5q0 26 16.5 45.5t42.5 19.5q23 0 39 -15.5t16 -40.5q0 -24 -17.5 -36.5t-35 -16.5t-17.5 -9q0 -6 13.5 -14.5t42 -16
t60.5 -7.5q64 0 106 17.5t84 58.5q56 55 151 174.5t131 157.5q94 99 183.5 142.5t198.5 51.5zM480 608h8q30 -60 30 -104q0 -87 -59.5 -147.5t-143.5 -60.5q-48 0 -75.5 30t-27.5 81q0 80 64.5 154t175 120.5t234.5 46.5q63 0 209 -15q166 -17 173 -17q101 0 150 40l8 -4
q-44 -62 -93 -85t-127 -23q-32 0 -206 17q-154 15 -244 15q-137 0 -234.5 -77.5t-97.5 -172.5q0 -42 23.5 -70t68.5 -28q64 0 121 65t57 147q0 60 -14 88z" />
    <glyph glyph-name="U" unicode="U" horiz-adv-x="1112" 
d="M1074 668h118l-422 -474q-58 -65 -58 -126q0 -31 19 -49.5t57 -18.5q44 0 95 30t90 70.5t65 83t26 67.5q0 45 -42 45q-64 0 -172 -136l-10 4q34 52 87.5 98t97.5 46q22 0 42.5 -17.5t20.5 -57.5q0 -87 -93.5 -166t-210.5 -79q-66 0 -99 37t-33 77q0 46 14 88h-2
q-108 -114 -171 -158t-123 -44q-53 0 -84.5 32t-31.5 75q0 51 36.5 111t88.5 114t104 106t88.5 102.5t36.5 87.5q0 53 -27 76.5t-95 23.5t-137 -30.5t-120 -76t-83 -99.5t-32 -100q0 -38 22 -60t62 -22q69 0 137 78t68 166h12v-30q0 -88 -64 -157t-153 -69q-45 0 -70.5 24.5
t-25.5 70.5q0 44 31.5 99t82.5 103.5t124.5 81.5t147.5 33q192 0 192 -174q0 -40 -37.5 -95t-91.5 -110t-108 -108.5t-91.5 -104.5t-37.5 -85q0 -23 17.5 -37t47.5 -14q60 0 140 67.5t213 216.5z" />
    <glyph glyph-name="V" unicode="V" horiz-adv-x="704" 
d="M414 554h12q0 -46 -12.5 -90t-37.5 -82.5t-68.5 -62t-99.5 -23.5q-57 0 -89.5 33t-32.5 91q0 65 33.5 124.5t83.5 98.5t106 62t103 23q74 0 169.5 -35t126.5 -35q71 0 158 58l4 -10q-60 -30 -117 -100t-108 -152t-109.5 -166t-146 -159.5t-193.5 -114.5l4 -2
q90 6 182.5 47.5t165.5 99.5t147 133t124.5 138t100.5 124.5t73 83.5q47 46 76.5 62t69.5 16q29 0 47 -15.5t18 -40.5q0 -22 -15 -37t-38 -15q-26 0 -43.5 14.5t-17.5 34.5q0 4 3 14t3 14q0 7 -7 7q-29 0 -87 -62q-28 -30 -85.5 -103t-108 -137t-129.5 -141t-157.5 -131.5
t-184 -92t-215.5 -37.5l-6 12q14 3 68 24q36 14 77.5 63.5t87.5 119t99.5 145t132.5 155.5t167 135l-2 2q-87 -34 -146 -34q-58 0 -136.5 29t-131.5 29q-93 0 -163.5 -80t-70.5 -174q0 -46 27.5 -70t74.5 -24q71 0 142.5 73.5t71.5 160.5z" />
    <glyph glyph-name="W" unicode="W" horiz-adv-x="1074" 
d="M438 552h12v-22q0 -54 -22 -99.5t-56.5 -74t-73 -44.5t-74.5 -16q-57 0 -88.5 34.5t-31.5 91.5q0 63 48 134t130 121.5t168 50.5q72 0 160 -31t110 -31q46 0 83 12t85 38v-12q-59 -34 -98 -74.5t-68.5 -90t-61.5 -104.5t-96 -138t-152 -171q-68 -68 -156 -112l2 -2
q72 10 142 49t130 94.5t120 121.5t121.5 134.5t124 128t139 107.5t155.5 69l4 -12q-49 -43 -105.5 -136.5t-127 -205.5t-145.5 -190q-77 -79 -202 -158l2 -2q100 22 186 65.5t146 94.5t119.5 118t102.5 126.5t100 130.5t106 119q62 62 129 62q28 0 45.5 -15.5t17.5 -40.5
q0 -23 -16 -37.5t-38 -14.5q-24 0 -39 14t-15 31q0 11 6.5 22t6.5 12q0 5 -5 5q-36 0 -99.5 -68.5t-163 -196t-151.5 -185.5q-98 -110 -233.5 -182t-256.5 -84l-4 12q46 28 93 86.5t93.5 131.5t101 152t137.5 167.5t181 158.5l-2 2q-83 -33 -160.5 -88t-137.5 -116.5
t-119 -129t-117.5 -130t-120.5 -114.5t-140 -87.5t-165 -44.5v12q47 27 90.5 80t84 118.5t88 136.5t124 152.5t171.5 148.5l-2 2l-20 -8q-20 -7 -27.5 -9t-25.5 -7t-35 -6.5t-36 -1.5q-44 0 -138.5 31t-137.5 31q-70 0 -147 -83t-77 -165q0 -46 25 -73t71 -27
q72 0 147.5 70.5t78.5 161.5z" />
    <glyph glyph-name="X" unicode="X" horiz-adv-x="1038" 
d="M498 306l22 28q53 -6 104 -6q136 192 136 290q0 43 -31.5 70.5t-72.5 27.5q-91 0 -176 -46t-133.5 -110t-48.5 -121q0 -52 26 -77.5t66 -25.5q24 0 54.5 14.5t60.5 41.5t50.5 74t20.5 103q0 26 -4 45h18q10 -40 10 -86q0 -76 -63.5 -140t-143.5 -64q-45 0 -76 26.5
t-31 83.5q0 103 116 198.5t256 95.5q80 0 139.5 -51.5t46.5 -136.5v-2q89 78 166.5 122t165.5 44q61 0 95.5 -26t34.5 -72q0 -25 -17.5 -41.5t-42.5 -16.5q-20 0 -34 13t-14 32q0 25 13.5 39.5t27 21t13.5 12.5t-7.5 11.5t-26 10t-44.5 4.5q-49 0 -102 -25.5t-96 -61
t-90.5 -89t-78 -95t-65.5 -93.5q42 0 82 6l-14 -28q-35 4 -78 4q-57 -80 -78.5 -127t-21.5 -95q0 -88 102 -88q56 0 115 48.5t93 106.5t34 93q0 27 -15.5 41.5t-38.5 14.5q-41 0 -82.5 -36t-57.5 -78l-12 4q19 46 63 84t89 38q38 0 58 -27.5t20 -66.5q0 -75 -76.5 -154.5
t-179.5 -79.5q-87 0 -123.5 43.5t-36.5 138.5q-79 -82 -179 -132t-205 -50q-76 0 -124 33t-48 81q0 28 17.5 47t45.5 19q25 0 41 -14.5t16 -39.5q0 -22 -14.5 -38t-34.5 -16q-21 0 -21 -14q0 -16 36.5 -31t79.5 -15q52 0 114 32t119 83t101.5 99.5t79.5 95.5q-61 0 -110 -4z
" />
    <glyph glyph-name="Y" unicode="Y" horiz-adv-x="1038" 
d="M114 -190q0 -66 82 -66q62 0 123.5 48.5t200.5 201.5v2q-200 -20 -303 -74.5t-103 -111.5zM730 232l400 452h126l-594 -670q81 10 157.5 43.5t132.5 98t56 144.5v26h10q14 -35 14 -64q0 -57 -26 -102t-65 -72.5t-92 -46.5t-98.5 -27.5t-92.5 -11.5q-125 -132 -249.5 -201
t-208.5 -69q-40 0 -69 18.5t-29 55.5q0 80 120.5 132t312.5 72l110 122l-2 2q-121 -108 -229 -108q-47 0 -76.5 30t-29.5 80q0 38 34.5 91t84 104.5t99 102.5t84 98t34.5 78q0 53 -42.5 79.5t-97.5 26.5q-74 0 -145.5 -33.5t-119.5 -81t-77.5 -98.5t-29.5 -89
q0 -44 24.5 -73t67.5 -29q63 0 143.5 85.5t80.5 158.5q0 16 -4 36l10 4q1 -6 2.5 -17t2.5 -20t1 -17q0 -91 -68.5 -166.5t-167.5 -75.5q-42 0 -73 28t-31 81q0 70 58.5 145.5t146.5 124.5t169 49q64 0 111 -17t71 -43.5t35 -53t11 -52.5q0 -35 -37.5 -89.5t-91.5 -111
t-108 -111t-91.5 -102t-37.5 -72.5q0 -16 17.5 -27t51.5 -11q51 0 121.5 42.5t113.5 82t70 69.5z" />
    <glyph glyph-name="Z" unicode="Z" horiz-adv-x="1074" 
d="M212 178q-30 0 -64 -9.5t-62 -32.5t-28 -54q0 -41 29 -61.5t71 -20.5q122 0 258 124q-116 54 -204 54zM1052 698q0 18 -23 18q-38 0 -143 -82v-2q46 0 86.5 12.5t60 27.5t19.5 26zM530 372l12 28q17 -1 51 -2t51 -2q97 117 171 191l-2 2q-27 -5 -41 -5q-40 0 -147.5 42
t-152.5 42q-63 0 -138.5 -81t-75.5 -166q0 -43 23.5 -68t56.5 -25q52 0 101.5 42.5t78.5 101t32 111.5h12q0 -108 -61.5 -187.5t-158.5 -79.5q-43 0 -69.5 29t-26.5 78q0 74 55.5 146.5t135.5 115.5t153 43q40 0 87.5 -14.5t109.5 -41t85 -34.5q111 90 158 90q16 0 25 -7.5
t9 -18.5q0 -21 -24.5 -40.5t-61.5 -32.5t-68.5 -21t-55.5 -12q-21 -22 -90 -102.5t-84 -97.5q24 0 51 1t60 2.5t51 2.5l-10 -30q-27 2 -80 6t-80 6q-75 -94 -174 -196q39 -12 102 -46.5t122.5 -58t115.5 -23.5q53 0 96 21t66.5 51.5t35.5 58.5t12 48q0 33 -22 51t-56 18
q-37 0 -69 -17.5t-46.5 -34t-38.5 -48.5q-2 -2 -2.5 -3t-1.5 -2.5t-2 -2.5l-12 4q73 116 174 116q38 0 63 -20.5t25 -59.5q0 -34 -23 -76.5t-62.5 -82t-101 -66.5t-129.5 -27q-41 0 -98.5 24t-123.5 59.5t-94 46.5q-146 -130 -268 -130q-47 0 -80.5 22t-33.5 75q0 39 27 68
t68 44t80.5 22t74.5 7q92 0 178 -30q26 31 80 94t80 94q-69 -4 -104 -12z" />
    <glyph glyph-name="bracketleft" unicode="[" horiz-adv-x="444" 
d="M-69 -114l654 860h180l-10 -12h-100l-642 -836h108l-4 -12h-186z" />
    <glyph glyph-name="backslash" unicode="\" horiz-adv-x="444" 
d="M229 728h39q158 -469 257 -740h-43q-56 189 -124 380q-125 349 -129 360z" />
    <glyph glyph-name="bracketright" unicode="]" horiz-adv-x="444" 
d="M-61 -102l642 836h-108l4 12h186l-654 -860h-180l10 12h100z" />
    <glyph glyph-name="asciicircum" unicode="^" horiz-adv-x="666" 
d="M195 206l186 366h46l184 -366h-54l-152 300l-152 -300h-58z" />
    <glyph glyph-name="underscore" unicode="_" horiz-adv-x="500" 
d="M500 -125h-500v50h500v-50z" />
    <glyph glyph-name="grave" unicode="`" 
d="M208 528h74q9 -66 66 -106v-14q-50 10 -90 42t-50 78z" />
    <glyph glyph-name="a" unicode="a" horiz-adv-x="518" 
d="M360 268l34 40h126l-246 -274q-14 -15 -14 -24q0 -10 14 -10q61 0 126 47.5t139 128.5l11 -6q-166 -182 -272 -182q-38 0 -52 19t-14 43q0 19 6 34h-2q-86 -96 -145 -96q-29 0 -45 20.5t-16 55.5q0 59 30.5 109.5t76.5 81.5t94.5 48t88.5 17q26 0 42.5 -12.5t16.5 -26.5
q0 -10 -1 -13h2zM347 279q0 23 -32 23q-23 0 -54 -30t-158 -176q-51 -58 -51 -75q0 -21 23 -21q48 0 140 102q132 147 132 177z" />
    <glyph glyph-name="b" unicode="b" horiz-adv-x="444" 
d="M456 182h12q-26 -60 -100 -60q-21 0 -42 6q-10 -9 -34 -30.5t-32.5 -28.5t-27.5 -22.5t-28 -21t-25.5 -15.5t-28.5 -13t-28 -6t-32 -3q-37 0 -58.5 27.5t-21.5 78.5q0 45 44.5 113.5t184.5 219.5q114 124 228 212.5t159 88.5q54 0 54 -54q0 -19 -11.5 -44.5t-41.5 -62
t-74.5 -75.5t-118.5 -85.5t-166 -90.5q-178 -224 -200 -264q-10 -17 -10 -24q0 -13 13 -20.5t25 -7.5q37 0 86 28t130 106q-28 28 -28 54q0 37 38.5 81.5t77.5 44.5q28 0 28 -34q0 -28 -16.5 -57t-32 -45.5t-41.5 -39.5q12 -4 42 -4q19 0 42 13t34 35zM668 676q0 40 -30 40
q-18 0 -33 -8t-55 -50.5t-96 -109.5t-170 -208h2q174 83 278 178.5t104 157.5z" />
    <glyph glyph-name="c" unicode="c" horiz-adv-x="370" 
d="M386 186l10 -4q-43 -76 -135.5 -135t-156.5 -59q-45 0 -66.5 26.5t-21.5 64.5q0 78 90.5 159.5t181.5 81.5q44 0 64 -18.5t20 -44.5t-14 -41.5t-34 -15.5q-19 0 -32.5 11t-13.5 29q0 20 12 32t34 12q18 0 32 -14h2q0 15 -15 26.5t-27 11.5q-23 0 -51.5 -27.5
t-102.5 -118.5q-44 -53 -65.5 -82t-27 -39t-5.5 -17q0 -10 10.5 -17t27.5 -7q58 0 151 58.5t133 127.5z" />
    <glyph glyph-name="d" unicode="d" horiz-adv-x="518" 
d="M52 24q0 -26 30 -26q58 0 259 234q19 21 19 36q0 14 -9 24t-22 10q-33 0 -59 -29q-162 -176 -190 -207.5t-28 -41.5zM372 272l322 336h122l-530 -563q-14 -15 -14 -30t17 -15q52 0 120.5 46t136.5 128l14 -4q-154 -182 -268 -182q-39 0 -56.5 13.5t-17.5 46.5q0 24 2 32
h-2q-53 -53 -83 -72.5t-60 -19.5q-71 0 -71 77q0 39 22.5 83.5t60.5 83t93 63.5t114 25q72 0 78 -48z" />
    <glyph glyph-name="e" unicode="e" horiz-adv-x="334" 
d="M225 252l-89 -100q65 0 119.5 41.5t54.5 91.5q0 23 -17 23q-18 0 -68 -56zM360 176h14q-62 -79 -147.5 -133.5t-155.5 -54.5q-38 0 -58.5 21t-20.5 57q0 68 52 129t117.5 93t118.5 32q30 0 48 -15.5t18 -40.5q0 -58 -65.5 -89.5t-154.5 -34.5q-86 -91 -86 -123
q0 -17 35 -17q67 0 149 53.5t136 122.5z" />
    <glyph glyph-name="f" unicode="f" horiz-adv-x="370" 
d="M-236 -220l332 368q-17 6 -42.5 26.5t-25.5 36.5q0 21 17 21q14 0 19 -33q6 -26 42 -39l336 361q73 80 166.5 143.5t141.5 63.5q19 0 32.5 -11t13.5 -33q0 -81 -127 -188.5t-329 -199.5l-138 -161q45 1 84 11t62.5 21t63.5 33l8 -10q-106 -67 -228 -67l-304 -343h-124z
M552 535l-192 -215h2q94 39 191.5 104.5t164 136.5t66.5 118q0 37 -30 37q-41 0 -202 -181z" />
    <glyph glyph-name="g" unicode="g" horiz-adv-x="482" 
d="M64 0q27 0 69.5 29t90.5 83l94 106q22 24 22 43q0 15 -10 28t-28 13q-31 0 -84 -60l-156 -178q-22 -25 -22 -42q0 -9 7 -15.5t17 -6.5zM354 266l40 42h118l-260 -286h2q64 16 134.5 60.5t129.5 105.5l6 -8q-52 -61 -137 -113.5t-153 -66.5q-107 -112 -214.5 -190
t-176.5 -78q-49 0 -49 38q0 47 80 99.5t242 118.5l44 44h-2q-2 -1 -8.5 -6t-9 -7t-9 -6t-9 -6t-8.5 -5.5t-10 -4.5t-10 -3.5t-11 -3.5t-11 -1.5t-12 -0.5q-56 0 -56 90q0 67 50 125t113 87.5t115 29.5q63 0 70 -54h2zM-194 -228q0 -28 36 -28q33 0 82 40t176 180h-2
q-71 -26 -132 -55.5t-110.5 -67.5t-49.5 -69z" />
    <glyph glyph-name="h" unicode="h" horiz-adv-x="482" 
d="M-106 0l408 436q111 118 211.5 189t150.5 71q52 0 52 -50q0 -62 -126.5 -161t-297.5 -175l-112 -122h2q142 116 199 116q43 0 43 -58q0 -31 -16.5 -57t-71.5 -85q-51 -54 -63.5 -69.5t-12.5 -21.5q0 -13 12 -13q38 0 103.5 51.5t132.5 126.5l10 -4q-60 -73 -132.5 -129.5
t-121.5 -56.5q-7 0 -14.5 3t-16.5 10t-15 23t-6 38q0 42 70 112q61 61 77.5 79.5t16.5 26.5q0 12 -12 12q-19 0 -105.5 -60t-126.5 -104l-116 -128h-122zM704 652q0 12 -7.5 22t-22.5 10q-17 0 -32.5 -7t-54.5 -42t-99 -103l-178 -200h2q158 77 275 166t117 154z" />
    <glyph glyph-name="i" unicode="i" 
d="M48 138l150 170h114l-234 -264q-20 -24 -20 -30q0 -14 17 -14q56 0 243 174l10 -4q-110 -106 -166.5 -144t-90.5 -38q-28 0 -44.5 18t-16.5 47q0 42 38 85zM328 446q0 20 19 39t45 19q19 0 31.5 -10.5t12.5 -27.5q0 -20 -19 -39t-45 -19q-19 0 -31.5 10.5t-12.5 27.5z
" />
    <glyph glyph-name="j" unicode="j" 
d="M-90 -14l288 322h112l-270 -292l2 -2q94 35 157.5 75t124.5 91l12 -6q-139 -123 -311 -176q-94 -105 -206 -185.5t-183 -80.5q-50 0 -50 54q0 42 96.5 101.5t227.5 98.5zM-402 -218q0 -38 34 -38q44 0 92.5 43.5t171.5 180.5l-2 2q-296 -108 -296 -188zM328 446
q0 20 19 39t45 19q19 0 31.5 -10.5t12.5 -27.5q0 -20 -19 -39t-45 -19q-19 0 -31.5 10.5t-12.5 27.5z" />
    <glyph glyph-name="k" unicode="k" horiz-adv-x="518" 
d="M-90 0l370 412q98 110 217 197t165 87q54 0 54 -46q0 -69 -115 -164t-305 -176l-128 -146h38q44 0 76 15t51 36t35.5 42t39 36t51.5 15q24 0 37.5 -13t13.5 -33q0 -25 -17.5 -43.5t-41.5 -18.5q-17 0 -27 12.5t-10 27.5q0 24 24 48l-2 2q-18 -5 -37.5 -27.5t-35.5 -45
t-43 -40.5t-58 -17v-2q25 0 44.5 -16t19.5 -40q0 -18 -14.5 -36t-29 -31.5t-14.5 -21.5q0 -13 20 -13q26 0 89 44.5t149 131.5l10 -8q-90 -85 -143.5 -124.5t-76.5 -47.5t-57 -8q-38 0 -56.5 14.5t-18.5 33.5q0 25 29 57.5t29 38.5q0 20 -32 20h-54l-126 -152h-120zM704 654
q0 14 -8.5 22t-21.5 8q-71 0 -360 -352h2q183 80 285.5 171t102.5 151z" />
    <glyph glyph-name="l" unicode="l" horiz-adv-x="334" 
d="M350 174l14 -6q-62 -69 -137.5 -124.5t-126.5 -55.5q-90 0 -90 112q0 49 60 120q179 210 340 343t236 133q34 0 34 -42q0 -30 -33 -79t-89 -104.5t-143.5 -113t-184.5 -97.5l-137 -167q-35 -42 -35 -65q0 -13 11 -20.5t27 -7.5q53 0 131 59t123 115zM436 504l-190 -222h2
q89 36 188 107.5t165.5 145.5t66.5 117q0 32 -26 32q-50 0 -206 -180z" />
    <glyph glyph-name="m" unicode="m" horiz-adv-x="740" 
d="M-106 0l274 310h114l-108 -118h2q83 70 128 99t76 29t44.5 -17.5t13.5 -40.5q0 -37 -28 -82h2q6 6 32.5 30t44 38.5t42.5 33.5t47.5 28.5t41.5 9.5q50 0 50 -82q0 -55 -103 -163q-36 -38 -43.5 -47.5t-7.5 -15.5q0 -12 20 -12q31 0 94 55t122 133l10 -6
q-149 -194 -234 -194q-60 0 -60 78q0 60 139 191q27 25 27 35q0 16 -18 16q-77 0 -278 -224l-76 -84h-122l236 260q14 17 14 34q0 14 -18 14q-37 0 -124 -69.5t-158 -146.5l-86 -92h-110z" />
    <glyph glyph-name="n" unicode="n" horiz-adv-x="482" 
d="M-92 0l276 308h114l-74 -82h2q103 94 152 94q50 0 50 -82q0 -55 -103 -163q-36 -38 -43.5 -47.5t-7.5 -15.5q0 -12 20 -12q31 0 94 55t122 133l10 -6q-149 -194 -234 -194q-60 0 -60 78q0 60 139 191q27 25 27 35q0 16 -18 16q-34 0 -118 -70t-128 -120l-104 -118h-116z
" />
    <glyph glyph-name="o" unicode="o" horiz-adv-x="444" 
d="M472 184v-14q-44 -34 -84 -34q-27 0 -38 8q-32 -34 -53 -54t-55 -47.5t-68.5 -41t-69.5 -13.5q-53 0 -76.5 26t-23.5 65q0 72 91.5 156.5t180.5 84.5q30 0 46.5 -5.5t33.5 -24.5q13 6 24 6q14 0 24.5 -9t10.5 -27q0 -22 -12 -44t-45 -62q10 -6 40 -6q16 0 38.5 11.5
t35.5 24.5zM301 201q0 24 14 49.5t29 33.5q-10 12 -26 12q-17 0 -32 -10.5t-53 -47.5q-120 -118 -145 -152q-24 -32 -24 -54q0 -14 10.5 -23t29.5 -9q97 0 232 148q-14 6 -24.5 21t-10.5 32z" />
    <glyph glyph-name="p" unicode="p" horiz-adv-x="482" 
d="M-302 -220l490 528h110l-74 -78h2q88 68 113 80q20 10 38 10q23 0 37 -17t14 -50q0 -37 -25.5 -79.5t-56.5 -72t-56.5 -55t-25.5 -32.5q0 -14 16 -14q31 0 97.5 53.5t134.5 128.5l8 -6q-47 -50 -81.5 -83.5t-84.5 -69t-80 -35.5q-27 0 -48.5 16t-21.5 54q2 16 10.5 32.5
t34.5 44.5t43 45.5t67 65.5q33 32 33 44q0 18 -20 18q-34 0 -116.5 -66.5t-117.5 -105.5l-318 -356h-122z" />
    <glyph glyph-name="q" unicode="q" horiz-adv-x="518" 
d="M-88 -220l214 226h-2q-30 -18 -53 -18q-24 0 -40.5 21t-16.5 57q0 57 33 107.5t80 81t92.5 48t76.5 17.5q35 0 53.5 -13t18.5 -34q0 -12 -4 -23h2l56 58h114l-282 -290l2 -2q121 35 282 160l8 -6q-151 -127 -307 -169l-213 -221h-114zM356 272q0 15 -9.5 22.5t-21.5 7.5
q-16 0 -33 -11.5t-68 -62.5t-153 -164q-21 -24 -21 -43q0 -9 6.5 -15t17.5 -6q25 0 65 29.5t73 64.5q98 103 121 131.5t23 46.5z" />
    <glyph glyph-name="r" unicode="r" horiz-adv-x="370" 
d="M-86 0l276 308h114l-137 -146l2 -2q42 26 95 36q19 42 57.5 83t74.5 41q11 0 20.5 -6t9.5 -18q0 -19 -12 -35.5t-25 -26.5t-39 -21.5t-37.5 -15t-36.5 -11.5q-4 -4 -4 -22q0 -12 9.5 -22t24.5 -10q53 0 98 62l10 -6q-17 -22 -29.5 -34t-33 -23t-43.5 -11q-24 0 -36 12.5
t-12 25.5q0 16 2 26q-49 -14 -82.5 -34.5t-66.5 -55.5l-85 -94h-114z" />
    <glyph glyph-name="s" unicode="s" horiz-adv-x="370" 
d="M394 170l8 -4q-19 -37 -60.5 -66.5t-81.5 -39.5q-19 -20 -36.5 -33.5t-52.5 -26t-79 -12.5q-53 0 -79.5 25t-26.5 61q0 42 26.5 73t58.5 31q19 0 31 -12.5t12 -31.5q0 -21 -16 -36.5t-36 -15.5q-17 0 -29 13.5t-15 34.5q-20 -18 -20 -62q0 -23 15.5 -39.5t35.5 -16.5
q29 0 69 42l63 67q69 73 69 109q0 28 -21 57l-79 -77l-8 4l81 81q-12 18 -12 27q0 31 21.5 52.5t35.5 21.5q9 0 15.5 -7t6.5 -17q0 -24 -52 -76q60 -103 60 -142q0 -36 -28 -80h2q80 27 122 96z" />
    <glyph glyph-name="t" unicode="t" 
d="M245 370l125 136h118l-124 -136h72l-8 -12h-75l-277 -304q-26 -28 -26 -42q0 -12 16 -12q63 0 246 170l10 -4q-182 -178 -266 -178q-32 0 -49 18t-17 44q0 25 12 47t44 57l188 204h-70l8 12h73z" />
    <glyph glyph-name="u" unicode="u" horiz-adv-x="518" 
d="M80 192l102 116h120l-198 -226q-52 -60 -52 -68q0 -14 20 -14q37 0 93.5 41t92.5 81l166 186h120l-243 -272q-17 -18 -17 -26q0 -10 19 -10q71 0 247 172l10 -6q-182 -178 -258 -178q-30 0 -48 16t-18 43q0 21 12 45h-2q-112 -104 -174 -104q-31 0 -49.5 23t-18.5 54
q0 26 14 49t62 78z" />
    <glyph glyph-name="v" unicode="v" horiz-adv-x="444" 
d="M52 188l106 120h124l-208 -242q-24 -28 -24 -39q0 -27 40 -27q61 0 117 37t114 96q-29 20 -29 59t38.5 83.5t71.5 44.5q28 0 28 -36q0 -22 -25 -62.5t-63 -81.5q16 -8 38 -8q47 0 88 44h12q-16 -27 -46.5 -41.5t-57.5 -14.5q-23 0 -42 8q-71 -72 -127.5 -106t-116.5 -34
q-38 0 -63 25.5t-25 60.5t10 57.5t40 56.5z" />
    <glyph glyph-name="w" unicode="w" horiz-adv-x="666" 
d="M72 176l114 132h128l-220 -242q-32 -34 -32 -50t22 -16q72 0 231 180l113 128h120l-192 -215l-1 -1l-1 -1l-1 -1l-1 -1l-1 -1l-1 -1q-51 -58 -53 -69q-1 -2 -1 -4q0 -14 22 -14q46 0 96.5 27.5t128.5 105.5q-29 20 -29 59t38.5 83.5t71.5 44.5q28 0 28 -36
q0 -22 -25 -62.5t-63 -81.5q16 -8 38 -8q47 0 88 44h12q-16 -27 -46.5 -41.5t-57.5 -14.5q-23 0 -42 8q-84 -81 -135.5 -110.5t-104.5 -29.5q-31 0 -49.5 18.5t-18.5 49.5q0 20 6 40h-2q-39 -37 -60.5 -55t-54 -35.5t-59.5 -17.5q-31 0 -47.5 21t-16.5 53q0 28 11.5 50.5
t46.5 63.5z" />
    <glyph glyph-name="x" unicode="x" horiz-adv-x="518" 
d="M72 192l-10 4q29 38 88.5 81t97.5 43q42 0 73 -23t31 -61q0 -4 -2 -20h2q60 73 78 87q22 17 46 17q21 0 39.5 -12.5t18.5 -39.5q0 -26 -14.5 -40t-39.5 -14q-17 0 -29.5 11t-12.5 35q0 18 14 36q-10 -1 -27 -15.5t-44 -47.5t-46 -57t-57 -74q-26 -34 -26 -62
q0 -13 13 -26.5t31 -13.5q56 0 128.5 56.5t117.5 121.5l8 -6q-53 -77 -126 -130.5t-134 -53.5q-59 0 -86 20t-36 78q-39 -53 -64 -75.5t-58 -22.5q-25 0 -42.5 18t-17.5 54q0 27 16 43.5t38 16.5q18 0 30 -14t12 -34q0 -21 -14.5 -34.5t-31.5 -13.5q-26 0 -36 14h-2
q6 -22 16 -30t32 -8q26 0 50 19.5t74 86.5l90 120q20 26 20 46q0 15 -12 25.5t-30 10.5q-31 0 -82 -40t-84 -76z" />
    <glyph glyph-name="y" unicode="y" horiz-adv-x="518" 
d="M62 176l120 132h130l-218 -228q-36 -38 -36 -53t18 -15q35 0 88 34.5t96 83.5l158 178h132l-276 -286h2q58 11 132 57.5t138 108.5l8 -8q-58 -60 -143.5 -111.5t-158.5 -68.5l-42 -44q-98 -102 -195 -163t-149 -61q-22 0 -40 13t-18 37q0 45 86 98t236 106l54 58h-2
q-62 -44 -114 -44q-28 0 -43 16.5t-15 45.5q0 57 52 114zM-180 -218q0 -18 11 -28t27 -10q36 0 84.5 41.5t165.5 176.5l-2 2q-108 -38 -197 -89.5t-89 -92.5z" />
    <glyph glyph-name="z" unicode="z" horiz-adv-x="482" 
d="M229 104l54 64l-2 2q-12 -4 -28 -4q-25 0 -48.5 13t-23.5 35q0 17 16 37t16 25q0 8 -14 8q-19 0 -65 -31t-75 -63l-8 6q36 41 99.5 82.5t101.5 41.5q26 0 41.5 -15.5t15.5 -31.5t-28 -46.5t-28 -36.5q0 -12 16 -12q15 0 26 8l72 82q45 52 76 52q7 0 12.5 -6.5t5.5 -14.5
q0 -24 -46.5 -60t-117.5 -67l-60 -74q10 -6 27.5 -18t26.5 -17t23.5 -10t30.5 -5q55 0 146 134l8 -6q-80 -109 -125.5 -148.5t-93.5 -39.5t-111 45q-46 -45 -116 -45q-31 0 -50.5 17.5t-19.5 42.5q0 39 33 67.5t97 28.5q48 0 116 -40zM45 96q-19 0 -34.5 -11t-15.5 -37
q0 -19 15.5 -33.5t44.5 -14.5q54 0 106 38q-3 2 -12.5 9.5t-13.5 10.5t-13 9.5t-14.5 9.5t-14.5 7.5t-15.5 6.5t-15.5 3.5t-17 1.5zM449 298q0 10 -10 10q-23 0 -116 -109l-6 -7h2q33 16 81 50t49 56z" />
    <glyph glyph-name="braceleft" unicode="{" horiz-adv-x="444" 
d="M37 25l181 238q19 25 19 47q0 38 -44 46v2q111 17 157 77l172 224q69 91 211 87v-12q-38 -5 -65.5 -17.5t-41.5 -26t-33 -38.5l-173 -223q-47 -61 -163 -79v-2q28 -28 28 -61t-43 -90l-166 -216q-15 -20 -15 -43q0 -17 11.5 -28.5t35.5 -11.5h21l-12 -12h-40
q-38 0 -57 17.5t-19 44.5q0 31 36 77z" />
    <glyph glyph-name="bar" unicode="|" horiz-adv-x="444" 
d="M268 -250v1000h48v-1000h-48z" />
    <glyph glyph-name="braceright" unicode="}" horiz-adv-x="444" 
d="M556 607l-181 -238q-19 -25 -19 -47q0 -38 44 -46v-2q-111 -17 -157 -77l-172 -224q-69 -91 -211 -87v12q38 5 65.5 17.5t41.5 26t33 38.5l173 223q47 61 163 79v2q-28 28 -28 61t43 90l166 216q15 20 15 43q0 17 -11.5 28.5t-35.5 11.5h-21l12 12h40q38 0 57 -17.5
t19 -44.5q0 -31 -36 -77z" />
    <glyph glyph-name="asciitilde" unicode="~" horiz-adv-x="666" 
d="M558 313l36 -33q-45 -86 -124 -86q-44 0 -116 35t-98 35q-27 0 -46 -18t-42 -53l-36 33q45 86 124 86q44 0 116 -35t98 -35q27 0 46 18t42 53z" />
    <glyph glyph-name="uni00A0" unicode="&#xa0;" 
 />
    <glyph glyph-name="exclamdown" unicode="&#xa1;" horiz-adv-x="444" 
d="M-76 -244h-112q219 238 452 430l6 -6q-31 -39 -157 -189t-189 -235zM396 276q0 -20 -17.5 -38t-36.5 -18q-42 0 -42 40q0 20 17.5 38t36.5 18q42 0 42 -40z" />
    <glyph glyph-name="cent" unicode="&#xa2;" horiz-adv-x="444" 
d="M101 4l198 222q-3 7 -3 14q0 20 12 32t34 12q18 0 32 -14h2q0 15 -15 26.5t-27 11.5q-23 0 -51.5 -27.5t-102.5 -118.5q-44 -53 -65.5 -82t-27 -39t-5.5 -17q0 -14 19 -20zM42 -62l49 55q-57 18 -57 86q0 78 90.5 159.5t181.5 81.5q39 0 61 -17l49 55l10 -6l-50 -57
q14 -14 14 -38q0 -26 -14 -41.5t-34 -15.5q-24 0 -37 16l-192 -215q2 -1 7 -1q58 0 151 58.5t133 127.5l10 -4q-43 -76 -135.5 -135t-156.5 -59q-9 0 -18 3l-52 -59z" />
    <glyph glyph-name="sterling" unicode="&#xa3;" horiz-adv-x="1222" 
d="M286 386l12 24h244q106 150 263 257t281 107q68 0 117 -16t74.5 -42.5t37 -54.5t11.5 -59q0 -78 -62 -127t-128 -49q-65 0 -110.5 43.5t-45.5 102.5v16h12v-20q0 -46 43 -88t97 -42q68 0 113 44.5t45 109.5q0 82 -56.5 126t-141.5 44q-45 0 -90.5 -19.5t-82.5 -48
t-81.5 -79t-77.5 -94t-80 -111.5h232l-10 -24h-236q-89 -128 -161.5 -203t-182.5 -139q136 -44 226 -44q62 0 126.5 27t110 65t74.5 77.5t29 66.5q0 52 -66 52q-31 0 -64 -17.5t-51.5 -34t-48.5 -46.5l-12 6q104 104 172 104q50 0 72 -21.5t22 -66.5q0 -99 -104 -161.5
t-240 -62.5q-112 0 -262 48l-8 -4q-104 -44 -222 -44q-49 0 -86.5 15t-37.5 47q0 54 98 54q103 0 233 -46q32 23 77.5 81t79 107.5t90.5 139.5h-244zM-36 52q0 -52 112 -52q116 0 196 48q-128 44 -222 44q-86 0 -86 -40z" />
    <glyph glyph-name="currency" unicode="&#xa4;" horiz-adv-x="600" 
d="M107 76l56 56q-56 65 -56 154t55 155l-55 55l38 38l55 -55q68 55 155 55q89 0 155 -55l55 55l38 -38l-55 -55q55 -68 55 -155t-55 -155l55 -55l-38 -38l-56 56q-65 -56 -154 -56t-155 55l-55 -55zM161 286q0 -86 57.5 -143t136.5 -57t136.5 57t57.5 143t-57.5 143
t-136.5 57t-136.5 -57t-57.5 -143z" />
    <glyph glyph-name="yen" unicode="&#xa5;" horiz-adv-x="1038" 
d="M573 91l159 181l-2 2q-136 -106 -243 -106q-99 0 -99 86q0 34 27 78.5t65.5 88t77 85.5t65.5 83.5t27 70.5q0 48 -36.5 75t-109.5 27q-122 0 -202 -66t-80 -142q0 -46 27.5 -72.5t64.5 -26.5q66 0 110 54t44 114q0 28 -6 46l10 4q8 -27 8 -53q0 -68 -50 -122.5
t-117 -54.5q-43 0 -73 29.5t-30 75.5q0 95 87 160.5t197 65.5q111 0 169.5 -49t58.5 -114q0 -34 -29.5 -80.5t-71.5 -92.5t-84 -89t-71.5 -79t-29.5 -54q0 -16 15 -26t40 -10q80 0 173 61t139 113l327 374h126l-562 -637h171l-16 -18h-172l-48 -55h176l-15 -18h-177
q-129 -120 -234 -174t-171 -54q-56 0 -98 27t-42 80q0 27 16.5 44t43.5 17q22 0 37 -15.5t15 -36.5q0 -24 -15 -40t-35 -16q-14 0 -14 -4q0 -20 28 -32t52 -12q41 0 87.5 28.5t80 59.5t114.5 114l14 14h-174l16 18h174l48 55h-176l17 18h176z" />
    <glyph glyph-name="brokenbar" unicode="&#xa6;" horiz-adv-x="444" 
d="M268 -175v350h48v-350h-48zM268 325v350h48v-350h-48z" />
    <glyph glyph-name="section" unicode="&#xa7;" horiz-adv-x="740" 
d="M450 80h28q53 0 91.5 26.5t38.5 77.5q0 28 -25.5 93.5t-59 140t-41.5 96.5q-11 4 -31 4q-43 0 -87 -26.5t-44 -73.5q0 -45 62 -181t68 -157zM480 68h-28q4 -32 4 -40q0 -82 -69 -124t-163 -42q-79 0 -129.5 37t-50.5 85q0 28 16 44t40 16q22 0 37 -14.5t15 -38.5
q0 -22 -15 -35t-30 -19.5t-15 -10.5q0 -15 38.5 -33.5t81.5 -18.5q64 0 112 31.5t48 94.5q0 72 -64 194q-66 124 -66 176q0 73 63.5 116.5t138.5 43.5q19 0 32 -4q-6 21 -6 42q0 80 62 120t153 40q76 0 131.5 -35t55.5 -94q0 -28 -14 -44.5t-40 -16.5q-23 0 -38.5 13
t-15.5 34q0 43 48 49q24 4 24 18q0 19 -46.5 41.5t-98.5 22.5q-58 0 -97.5 -25t-39.5 -77q0 -62 54 -174q3 -5 13 -25.5t13 -27.5t11.5 -25t11.5 -27t9 -25t8 -27t4 -25t2 -26q0 -64 -64 -114t-136 -50z" />
    <glyph glyph-name="dieresis" unicode="&#xa8;" 
d="M164 460q0 20 17.5 38t36.5 18q42 0 42 -40q0 -20 -17.5 -38t-36.5 -18q-42 0 -42 40zM300 460q0 20 17.5 38t36.5 18q42 0 42 -40q0 -20 -17.5 -38t-36.5 -18q-42 0 -42 40z" />
    <glyph glyph-name="copyright" unicode="&#xa9;" horiz-adv-x="900" 
d="M170 358q0 153 108.5 261.5t261.5 108.5t261.5 -108.5t108.5 -261.5t-108.5 -261.5t-261.5 -108.5t-261.5 108.5t-108.5 261.5zM219 358q0 -136 95.5 -235t226.5 -99t226.5 99t95.5 235t-95.5 235t-226.5 99t-226.5 -99t-95.5 -235zM724 264l-23 -82q-1 -5 -20.5 -11.5
t-52.5 -11.5t-66 -5q-113 0 -172 56.5t-59 155.5q0 79 66 142.5t172 63.5q40 0 73.5 -7t48.5 -15t15 -14v-80h-13q-9 92 -128 92q-78 0 -119 -49t-41 -129q0 -86 39 -139t123 -53q51 0 83.5 20t50.5 66h23z" />
    <glyph glyph-name="ordfeminine" unicode="&#xaa;" horiz-adv-x="337" 
d="M401 552l22 24h87l-160 -160q-9 -9 -9 -14q0 -6 9 -6q71 0 173 104l6 -7q-107 -109 -176 -109q-48 0 -48 37q0 12 4 20h-2q-2 -2 -15 -13.5t-16.5 -14.5t-14.5 -10.5t-18 -10t-17.5 -5.5t-21.5 -3q-35 0 -35 50t59 100t120 50q26 0 39 -7.5t13 -16.5v-8h1zM388 554
q0 7 -5.5 12.5t-12.5 5.5q-12 0 -33 -19t-103 -104q-29 -30 -29 -40q0 -13 13 -13q36 0 89 56q37 39 57 62.5t23.5 30.5t0.5 9z" />
    <glyph glyph-name="guillemotleft" unicode="&#xab;" horiz-adv-x="444" 
d="M450 306l8 -8q-88 -100 -138 -130q-4 -102 -44 -164l-12 4q8 50 8 95q0 49 -12 97q45 11 104.5 45.5t85.5 60.5zM312 306l8 -8q-88 -100 -138 -130q-4 -102 -44 -164l-12 4q8 50 8 95q0 49 -12 97q45 11 104.5 45.5t85.5 60.5z" />
    <glyph glyph-name="logicalnot" unicode="&#xac;" horiz-adv-x="666" 
d="M578 107v218h-458v48h506v-266h-48z" />
    <glyph glyph-name="uni00AD" unicode="&#xad;" horiz-adv-x="518" 
d="M191 172l6 36q44 -6 66 -6q23 0 69 6l-6 -36q-44 6 -66 6q-23 0 -69 -6z" />
    <glyph glyph-name="registered" unicode="&#xae;" horiz-adv-x="900" 
d="M218 358q0 -136 95.5 -235t226.5 -99t226.5 99t95.5 235t-95.5 235t-226.5 99t-226.5 -99t-95.5 -235zM170 358q0 153 108.5 261.5t261.5 108.5t261.5 -108.5t108.5 -261.5t-108.5 -261.5t-261.5 -108.5t-261.5 108.5t-108.5 261.5zM419 210v306q0 18 -8.5 25t-29.5 7
h-17v12h185q54 0 91.5 -24.5t37.5 -71.5q0 -42 -24.5 -71.5t-62.5 -42.5l85 -121q35 -51 68 -53v-12h-56q-18 0 -31 9.5t-40.5 45.5t-82.5 121h-55v-124q0 -22 8.5 -31t36.5 -9h10v-12h-170v12h21q34 0 34 34zM479 536v-172h55q84 0 84 96q0 76 -88 76h-51z" />
    <glyph glyph-name="macron" unicode="&#xaf;" 
d="M162 480h226l-12 -36h-228z" />
    <glyph glyph-name="degree" unicode="&#xb0;" horiz-adv-x="400" 
d="M217 440q0 60 41.5 102t100.5 42t101.5 -42t42.5 -102q0 -58 -42.5 -100t-101.5 -42t-100.5 42t-41.5 100zM253 440q0 -44 30.5 -75t75.5 -31t76.5 31t31.5 75q0 45 -31.5 76.5t-76.5 31.5t-75.5 -31.5t-30.5 -76.5z" />
    <glyph glyph-name="plusminus" unicode="&#xb1;" horiz-adv-x="666" 
d="M349 325v181h48v-181h229v-48h-229v-177h-48v177h-229v48h229zM120 0v48h506v-48h-506z" />
    <glyph glyph-name="twosuperior" unicode="&#xb2;" horiz-adv-x="361" 
d="M396 520h12q-5 -30 -30.5 -57t-55.5 -27q-17 0 -29.5 11t-12.5 27q0 42 46 76t92 34q33 0 62.5 -20.5t29.5 -57.5q0 -47 -52 -94q-33 -30 -82.5 -46.5t-93 -22t-96 -21t-88.5 -42.5v-4h2q28 22 74 22q21 0 60.5 -13t59.5 -13q27 0 40 7t22 29h6q-7 -36 -36 -60t-68 -24
q-19 0 -74 10q-63 18 -80 18q-29 0 -56 -20l-12 8q3 3 17 14.5t17 14t15 12t16.5 12.5t16.5 10.5t20 11t21.5 10t26.5 11t29.5 10t35.5 11.5q101 30 150 84.5t49 98.5q0 13 -10.5 22.5t-21.5 9.5q-27 0 -70.5 -37t-43.5 -69q0 -18 18 -18q50 0 74 72z" />
    <glyph glyph-name="threesuperior" unicode="&#xb3;" horiz-adv-x="362" 
d="M277 408v14q18 -2 52 -2q28 0 46 6.5t42 25.5q20 16 33 39t13 43q0 21 -9.5 29.5t-28.5 8.5q-31 0 -71.5 -38t-40.5 -58t24 -20q19 0 34.5 10t23 20t16.5 26h10q-12 -28 -34 -48t-49 -20q-37 0 -37 38q0 39 41 70.5t83 31.5q33 0 59.5 -21t26.5 -51q0 -47 -47 -76.5
t-111 -31.5v-2q14 -3 23 -21.5t9 -34.5q0 -49 -48 -85.5t-140 -36.5q-102 0 -102 77q0 27 15 44t34 17q15 0 25 -11t10 -26q0 -35 -33 -35q-16 0 -24 15l-9 15q-6 0 -6 -21q0 -24 17.5 -43.5t53.5 -19.5q37 0 77 40q82 82 82 113q0 19 -40 19h-20z" />
    <glyph glyph-name="acute" unicode="&#xb4;" 
d="M320 528h74q-10 -45 -50.5 -76.5t-89.5 -43.5v14q57 40 66 106z" />
    <glyph glyph-name="mu" unicode="&#xb5;" horiz-adv-x="518" 
d="M-291 -220l473 528h120l-198 -226q-52 -60 -52 -68q0 -14 20 -14q37 0 93.5 41t92.5 81l166 186h120l-243 -272q-17 -18 -17 -26q0 -10 19 -10q71 0 247 172l10 -6q-182 -178 -258 -178q-30 0 -48 16t-18 43q0 21 12 45h-2q-112 -104 -174 -104q-23 0 -33 20l-201 -228
h-129z" />
    <glyph glyph-name="paragraph" unicode="&#xb6;" horiz-adv-x="600" 
d="M360 341l240 363q-74 0 -138.5 -30t-105 -75t-63.5 -92.5t-23 -85.5q0 -44 23.5 -62t66.5 -18zM183 -126l550 830h-72l-550 -830h-164l14 12q63 0 88.5 13t55.5 57l243 367q-43 0 -78 8.5t-62.5 34.5t-27.5 69q0 34 16.5 71t52.5 75t86.5 67.5t126.5 48.5t165 19h294
l-16 -12q-68 0 -100.5 -16.5t-52.5 -46.5l-454 -685q-20 -30 -20 -43q0 -17 20.5 -22t64.5 -5l-14 -12h-166z" />
    <glyph glyph-name="periodcentered" unicode="&#xb7;" 
d="M142 245q0 20 17.5 38t36.5 18q42 0 42 -40q0 -20 -17.5 -38t-36.5 -18q-42 0 -42 40z" />
    <glyph glyph-name="cedilla" unicode="&#xb8;" 
d="M-54 -184v12q53 32 76 57l-2 2q-10 -5 -24 -5t-24 8.5t-10 24.5q0 23 17 43t40 20q16 0 27.5 -11.5t11.5 -34.5q0 -30 -35 -62.5t-77 -53.5z" />
    <glyph glyph-name="onesuperior" unicode="&#xb9;" horiz-adv-x="354" 
d="M118 232l280 284h-2q-128 -75 -195 -100l-11 6q67 31 95.5 44.5t79 45t83.5 64.5h94l-330 -344h-94z" />
    <glyph glyph-name="ordmasculine" unicode="&#xba;" horiz-adv-x="289" 
d="M481 502v-13q-28 -20 -55 -20q-16 0 -29 4q-28 -27 -44 -40.5t-49 -31t-62 -17.5q-73 0 -73 55q0 44 59.5 94.5t119.5 50.5q35 0 52 -18q9 6 21 6q8 0 15 -6.5t7 -17.5q0 -23 -36 -64q6 -3 26 -3q22 0 48 21zM365 508q0 34 24 52q-6 6 -13 6q-21 0 -56 -31
q-109 -95 -109 -123q0 -17 25 -16q33 2 62 15.5t45 27.5t39 38q-17 9 -17 31z" />
    <glyph glyph-name="guillemotright" unicode="&#xbb;" horiz-adv-x="444" 
d="M32 4l-8 8q88 100 138 130q4 102 44 164l12 -4q-8 -50 -8 -95q0 -49 12 -97q-45 -11 -104.5 -45.5t-85.5 -60.5zM170 4l-8 8q88 100 138 130q4 102 44 164l12 -4q-8 -50 -8 -95q0 -49 12 -97q-45 -11 -104.5 -45.5t-85.5 -60.5z" />
    <glyph glyph-name="onequarter" unicode="&#xbc;" horiz-adv-x="888" 
d="M494 0l99 102h-183l16 20l404 222h86l-212 -218h54l-22 -24h-55l-99 -102h-88zM617 126l183 188h-2l-342 -186v-2h161zM139 -30l622 632h36l-622 -632h-36zM118 232l280 284h-2q-128 -75 -195 -100l-11 6q67 31 95.5 44.5t79 45t83.5 64.5h94l-330 -344h-94z" />
    <glyph glyph-name="onehalf" unicode="&#xbd;" horiz-adv-x="888" 
d="M139 -30l622 632h36l-622 -632h-36zM118 232l280 284h-2q-128 -75 -195 -100l-11 6q67 31 95.5 44.5t79 45t83.5 64.5h94l-330 -344h-94zM740 296h12q-5 -30 -30.5 -57t-55.5 -27q-17 0 -29.5 11t-12.5 27q0 42 46 76t92 34q33 0 62.5 -20.5t29.5 -57.5q0 -47 -52 -94
q-33 -30 -82.5 -46.5t-93 -22t-96 -21t-88.5 -42.5v-4h2q28 22 74 22q21 0 60.5 -13t59.5 -13q27 0 40 7t22 29h6q-7 -36 -36 -60t-68 -24q-19 0 -74 10q-63 18 -80 18q-29 0 -56 -20l-12 8q3 3 17 14.5t17 14t15 12t16.5 12.5t16.5 10.5t20 11t21.5 10t26.5 11t29.5 10
t35.5 11.5q101 30 150 84.5t49 98.5q0 13 -10.5 22.5t-21.5 9.5q-27 0 -70.5 -37t-43.5 -69q0 -18 18 -18q50 0 74 72z" />
    <glyph glyph-name="threequarters" unicode="&#xbe;" horiz-adv-x="888" 
d="M494 0l99 102h-183l16 20l404 222h86l-212 -218h54l-22 -24h-55l-99 -102h-88zM617 126l183 188h-2l-342 -186v-2h161zM139 -30l622 632h36l-622 -632h-36zM277 408v14q18 -2 52 -2q28 0 46 6.5t42 25.5q20 16 33 39t13 43q0 21 -9.5 29.5t-28.5 8.5q-31 0 -71.5 -38
t-40.5 -58t24 -20q19 0 34.5 10t23 20t16.5 26h10q-12 -28 -34 -48t-49 -20q-37 0 -37 38q0 39 41 70.5t83 31.5q33 0 59.5 -21t26.5 -51q0 -47 -47 -76.5t-111 -31.5v-2q14 -3 23 -21.5t9 -34.5q0 -49 -48 -85.5t-140 -36.5q-102 0 -102 77q0 27 15 44t34 17q15 0 25 -11
t10 -26q0 -35 -33 -35q-16 0 -24 15l-9 15q-6 0 -6 -21q0 -24 17.5 -43.5t53.5 -19.5q37 0 77 40q82 82 82 113q0 19 -40 19h-20z" />
    <glyph glyph-name="questiondown" unicode="&#xbf;" horiz-adv-x="592" 
d="M104 -156h-12q0 51 38.5 90.5t89.5 39.5q29 0 47.5 -18.5t18.5 -49.5q0 -73 -61 -123.5t-135 -50.5q-67 0 -110.5 41.5t-43.5 98.5q0 61 42.5 112.5t105.5 81.5t132 38q34 4 68 19.5t46 24t42 32.5l14 -6q-36 -43 -134 -92q-244 -122 -244 -262q0 -76 75 -76
q47 0 113 61.5t66 110.5q0 21 -13.5 33.5t-30.5 12.5q-43 0 -78.5 -37t-35.5 -81zM494 276q0 -20 -17.5 -38t-36.5 -18q-42 0 -42 40q0 20 17.5 38t36.5 18q42 0 42 -40z" />
    <glyph glyph-name="Agrave" unicode="&#xc0;" horiz-adv-x="1222" 
d="M494 332l10 18q25 0 76 -1t76 -1q71 85 119 138.5t111.5 116.5t113.5 94t88 31q41 0 57.5 -20t16.5 -62q0 -52 -36.5 -109.5t-153.5 -188.5q15 0 46 2t46 2l-8 -20q-16 0 -49 2t-49 2q-90 -98 -126 -150.5t-36 -95.5q0 -46 24.5 -68t77.5 -22q51 0 121.5 46t120.5 108
t50 106q0 28 -18.5 44t-39.5 16q-51 0 -100 -48.5t-76 -103.5h-6q15 62 68 113t111 51q35 0 54 -21.5t19 -51.5q0 -47 -20.5 -90.5t-53.5 -75.5t-72.5 -56t-79 -36.5t-72.5 -12.5q-74 0 -127 45t-53 109q0 14 3 28.5t6 25t12 25.5t13 22.5t18 24.5t17.5 21.5t21 24
t19.5 22.5h-174q-162 -184 -273 -266t-222 -82q-76 0 -120.5 34.5t-44.5 85.5q0 24 17.5 42t42.5 18q23 0 41.5 -15.5t18.5 -38.5q0 -20 -17.5 -39t-44.5 -19q-8 0 -8 -8q0 -16 34.5 -32t79.5 -16q107 0 210.5 75.5t269.5 260.5q-26 0 -75.5 -2t-74.5 -2zM672 348h172
q13 18 84 94.5t128.5 148t57.5 101.5q0 11 -8 17.5t-19 6.5q-56 0 -154 -89t-261 -279zM1071 916h74q9 -66 66 -106v-14q-50 10 -90 42t-50 78z" />
    <glyph glyph-name="Aacute" unicode="&#xc1;" horiz-adv-x="1222" 
d="M494 332l10 18q25 0 76 -1t76 -1q71 85 119 138.5t111.5 116.5t113.5 94t88 31q41 0 57.5 -20t16.5 -62q0 -52 -36.5 -109.5t-153.5 -188.5q15 0 46 2t46 2l-8 -20q-16 0 -49 2t-49 2q-90 -98 -126 -150.5t-36 -95.5q0 -46 24.5 -68t77.5 -22q51 0 121.5 46t120.5 108
t50 106q0 28 -18.5 44t-39.5 16q-51 0 -100 -48.5t-76 -103.5h-6q15 62 68 113t111 51q35 0 54 -21.5t19 -51.5q0 -47 -20.5 -90.5t-53.5 -75.5t-72.5 -56t-79 -36.5t-72.5 -12.5q-74 0 -127 45t-53 109q0 14 3 28.5t6 25t12 25.5t13 22.5t18 24.5t17.5 21.5t21 24
t19.5 22.5h-174q-162 -184 -273 -266t-222 -82q-76 0 -120.5 34.5t-44.5 85.5q0 24 17.5 42t42.5 18q23 0 41.5 -15.5t18.5 -38.5q0 -20 -17.5 -39t-44.5 -19q-8 0 -8 -8q0 -16 34.5 -32t79.5 -16q107 0 210.5 75.5t269.5 260.5q-26 0 -75.5 -2t-74.5 -2zM672 348h172
q13 18 84 94.5t128.5 148t57.5 101.5q0 11 -8 17.5t-19 6.5q-56 0 -154 -89t-261 -279zM1183 916h74q-10 -45 -50.5 -76.5t-89.5 -43.5v14q57 40 66 106z" />
    <glyph glyph-name="Acircumflex" unicode="&#xc2;" horiz-adv-x="1222" 
d="M494 332l10 18q25 0 76 -1t76 -1q71 85 119 138.5t111.5 116.5t113.5 94t88 31q41 0 57.5 -20t16.5 -62q0 -52 -36.5 -109.5t-153.5 -188.5q15 0 46 2t46 2l-8 -20q-16 0 -49 2t-49 2q-90 -98 -126 -150.5t-36 -95.5q0 -46 24.5 -68t77.5 -22q51 0 121.5 46t120.5 108
t50 106q0 28 -18.5 44t-39.5 16q-51 0 -100 -48.5t-76 -103.5h-6q15 62 68 113t111 51q35 0 54 -21.5t19 -51.5q0 -47 -20.5 -90.5t-53.5 -75.5t-72.5 -56t-79 -36.5t-72.5 -12.5q-74 0 -127 45t-53 109q0 14 3 28.5t6 25t12 25.5t13 22.5t18 24.5t17.5 21.5t21 24
t19.5 22.5h-174q-162 -184 -273 -266t-222 -82q-76 0 -120.5 34.5t-44.5 85.5q0 24 17.5 42t42.5 18q23 0 41.5 -15.5t18.5 -38.5q0 -20 -17.5 -39t-44.5 -19q-8 0 -8 -8q0 -16 34.5 -32t79.5 -16q107 0 210.5 75.5t269.5 260.5q-26 0 -75.5 -2t-74.5 -2zM672 348h172
q13 18 84 94.5t128.5 148t57.5 101.5q0 11 -8 17.5t-19 6.5q-56 0 -154 -89t-261 -279zM1165 916h94q-54 -62 -54 -78q0 -14 14 -28l-4 -14q-3 0 -9 3.5t-19 16.5t-26 34q-65 -42 -146 -48v12q97 27 150 102z" />
    <glyph glyph-name="Atilde" unicode="&#xc3;" horiz-adv-x="1222" 
d="M494 332l10 18q25 0 76 -1t76 -1q71 85 119 138.5t111.5 116.5t113.5 94t88 31q41 0 57.5 -20t16.5 -62q0 -52 -36.5 -109.5t-153.5 -188.5q15 0 46 2t46 2l-8 -20q-16 0 -49 2t-49 2q-90 -98 -126 -150.5t-36 -95.5q0 -46 24.5 -68t77.5 -22q51 0 121.5 46t120.5 108
t50 106q0 28 -18.5 44t-39.5 16q-51 0 -100 -48.5t-76 -103.5h-6q15 62 68 113t111 51q35 0 54 -21.5t19 -51.5q0 -47 -20.5 -90.5t-53.5 -75.5t-72.5 -56t-79 -36.5t-72.5 -12.5q-74 0 -127 45t-53 109q0 14 3 28.5t6 25t12 25.5t13 22.5t18 24.5t17.5 21.5t21 24
t19.5 22.5h-174q-162 -184 -273 -266t-222 -82q-76 0 -120.5 34.5t-44.5 85.5q0 24 17.5 42t42.5 18q23 0 41.5 -15.5t18.5 -38.5q0 -20 -17.5 -39t-44.5 -19q-8 0 -8 -8q0 -16 34.5 -32t79.5 -16q107 0 210.5 75.5t269.5 260.5q-26 0 -75.5 -2t-74.5 -2zM672 348h172
q13 18 84 94.5t128.5 148t57.5 101.5q0 11 -8 17.5t-19 6.5q-56 0 -154 -89t-261 -279zM1251 886l6 -2q-16 -37 -37.5 -53.5t-60.5 -16.5q-10 0 -56.5 12t-67.5 12q-8 0 -16.5 -3.5t-19 -9.5t-16.5 -9h-4q16 25 21.5 33.5t16.5 21.5t21 17t23 4q29 0 86.5 -14t61.5 -14
q10 0 24.5 8t17.5 14z" />
    <glyph glyph-name="Adieresis" unicode="&#xc4;" horiz-adv-x="1222" 
d="M494 332l10 18q25 0 76 -1t76 -1q71 85 119 138.5t111.5 116.5t113.5 94t88 31q41 0 57.5 -20t16.5 -62q0 -52 -36.5 -109.5t-153.5 -188.5q15 0 46 2t46 2l-8 -20q-16 0 -49 2t-49 2q-90 -98 -126 -150.5t-36 -95.5q0 -46 24.5 -68t77.5 -22q51 0 121.5 46t120.5 108
t50 106q0 28 -18.5 44t-39.5 16q-51 0 -100 -48.5t-76 -103.5h-6q15 62 68 113t111 51q35 0 54 -21.5t19 -51.5q0 -47 -20.5 -90.5t-53.5 -75.5t-72.5 -56t-79 -36.5t-72.5 -12.5q-74 0 -127 45t-53 109q0 14 3 28.5t6 25t12 25.5t13 22.5t18 24.5t17.5 21.5t21 24
t19.5 22.5h-174q-162 -184 -273 -266t-222 -82q-76 0 -120.5 34.5t-44.5 85.5q0 24 17.5 42t42.5 18q23 0 41.5 -15.5t18.5 -38.5q0 -20 -17.5 -39t-44.5 -19q-8 0 -8 -8q0 -16 34.5 -32t79.5 -16q107 0 210.5 75.5t269.5 260.5q-26 0 -75.5 -2t-74.5 -2zM672 348h172
q13 18 84 94.5t128.5 148t57.5 101.5q0 11 -8 17.5t-19 6.5q-56 0 -154 -89t-261 -279zM1027 848q0 20 17.5 38t36.5 18q42 0 42 -40q0 -20 -17.5 -38t-36.5 -18q-42 0 -42 40zM1163 848q0 20 17.5 38t36.5 18q42 0 42 -40q0 -20 -17.5 -38t-36.5 -18q-42 0 -42 40z" />
    <glyph glyph-name="Aring" unicode="&#xc5;" horiz-adv-x="1222" 
d="M494 332l10 18q25 0 76 -1t76 -1q71 85 119 138.5t111.5 116.5t113.5 94t88 31q41 0 57.5 -20t16.5 -62q0 -52 -36.5 -109.5t-153.5 -188.5q15 0 46 2t46 2l-8 -20q-16 0 -49 2t-49 2q-90 -98 -126 -150.5t-36 -95.5q0 -46 24.5 -68t77.5 -22q51 0 121.5 46t120.5 108
t50 106q0 28 -18.5 44t-39.5 16q-51 0 -100 -48.5t-76 -103.5h-6q15 62 68 113t111 51q35 0 54 -21.5t19 -51.5q0 -47 -20.5 -90.5t-53.5 -75.5t-72.5 -56t-79 -36.5t-72.5 -12.5q-74 0 -127 45t-53 109q0 14 3 28.5t6 25t12 25.5t13 22.5t18 24.5t17.5 21.5t21 24
t19.5 22.5h-174q-162 -184 -273 -266t-222 -82q-76 0 -120.5 34.5t-44.5 85.5q0 24 17.5 42t42.5 18q23 0 41.5 -15.5t18.5 -38.5q0 -20 -17.5 -39t-44.5 -19q-8 0 -8 -8q0 -16 34.5 -32t79.5 -16q107 0 210.5 75.5t269.5 260.5q-26 0 -75.5 -2t-74.5 -2zM672 348h172
q13 18 84 94.5t128.5 148t57.5 101.5q0 11 -8 17.5t-19 6.5q-56 0 -154 -89t-261 -279zM1102 894q0 38 26 64t64 26t64 -26t26 -64t-26 -64t-64 -26t-64 26t-26 64zM1126 894q0 -27 19.5 -46.5t46.5 -19.5t46.5 19.5t19.5 46.5t-19.5 46.5t-46.5 19.5t-46.5 -19.5
t-19.5 -46.5z" />
    <glyph glyph-name="AE" unicode="&#xc6;" horiz-adv-x="1469" 
d="M745 332h-162q-144 -178 -243.5 -261t-180.5 -83q-53 0 -99.5 32t-46.5 82q0 28 16 47t44 19q27 0 43.5 -16t16.5 -46q0 -35 -40 -45q-30 -7 -30 -16q0 -16 35.5 -30.5t66.5 -14.5q69 0 159.5 74t242.5 258q-25 0 -74 -2t-74 -2l10 20q100 -4 148 -4l66 75
q146 166 232.5 237.5t135.5 71.5q66 0 66 -82q0 -55 -37.5 -117.5t-91 -118.5t-107 -111t-91 -111.5t-37.5 -103.5q0 -37 22 -60.5t66 -23.5q26 0 67.5 14t60.5 30q-26 28 -39 54.5t-13 67.5q0 65 45.5 120.5t115 89.5t153.5 50q-10 14 -13 29q-37 0 -73 6v14q35 -8 72 -8
q1 65 41 117t102.5 82t132 46t136.5 16q52 0 74.5 -14.5t22.5 -44.5q0 -42 -65.5 -88t-175.5 -80.5t-227 -42.5q-5 -7 -5 -13q0 -9 4 -17q16 2 37 2q13 0 27 -2t31.5 -6.5t29 -14.5t11.5 -25q0 -13 -13 -20.5t-30 -7.5q-74 0 -105 50q-60 -29 -164 -140t-104 -164
q0 -47 39.5 -73.5t88.5 -26.5q75 0 145.5 28t116 68t73 80.5t27.5 67.5q0 58 -64 58q-129 0 -230 -134l-10 6q104 140 242 140q40 0 63 -22.5t23 -61.5q0 -80 -108.5 -161t-253.5 -81q-83 0 -140 40q-90 -40 -144 -40q-64 0 -114 47t-50 111q0 34 19 72t35.5 58t49.5 56z
M1605 716q-82 0 -193.5 -79.5t-186.5 -166.5q85 5 189 34.5t182 75.5t78 90q0 46 -69 46zM1341 384q0 16 -26.5 25t-47.5 9q-27 0 -44 -8q9 -17 36 -30.5t50 -13.5q32 0 32 18zM591 344h162q111 113 199.5 215t88.5 125q0 12 -11.5 22t-20.5 10q-48 0 -126.5 -68
t-183.5 -185z" />
    <glyph glyph-name="Ccedilla" unicode="&#xc7;" horiz-adv-x="704" 
d="M182 -184v12q53 32 76 57l-2 2q-10 -5 -24 -5t-24 8.5t-10 24.5q0 23 17 43t40 20q16 0 27.5 -11.5t11.5 -34.5q0 -30 -35 -62.5t-77 -53.5zM922 716q-56 0 -114 -20t-101 -46t-97 -74t-83.5 -78.5t-80.5 -85.5q-6 -6 -8.5 -9t-7 -8t-8.5 -9q102 2 210 31t188 69.5
t132 87.5t52 84q0 31 -24.5 44.5t-57.5 13.5zM558 676l-4 -8q-5 2 -23 10.5t-23.5 10.5t-21 8.5t-24.5 8.5t-23.5 5t-29 4t-31.5 1q-91 0 -145.5 -47t-54.5 -127q0 -109 116 -142q72 75 132.5 127t137 101.5t160.5 74.5t176 25q116 0 116 -70q0 -41 -54 -91t-137.5 -92.5
t-195.5 -71t-217 -29.5q-184 -201 -184 -304q0 -25 20 -47.5t70 -22.5q66 0 132 30.5t110 72t72 82t28 63.5q0 24 -18 36t-45 12q-58 0 -112.5 -40t-112.5 -110l-6 6q45 67 109 111.5t117 44.5q80 0 80 -72q0 -32 -20.5 -72.5t-58.5 -81t-105 -67.5t-148 -27q-49 0 -84.5 15
t-53.5 40t-26 51t-8 54q0 94 119 242q-157 42 -157 166q0 67 70.5 119.5t171.5 52.5q29 0 52 -2.5t45 -10t30.5 -10.5t32 -15.5t26.5 -13.5z" />
    <glyph glyph-name="Egrave" unicode="&#xc8;" horiz-adv-x="704" 
d="M368 168l-10 6q104 140 242 140q40 0 63 -22.5t23 -61.5q0 -80 -108.5 -161t-253.5 -81q-100 0 -161 49t-61 129q0 55 32.5 103t83.5 79t104.5 50.5t103.5 27.5q-10 14 -13 29q-92 0 -157.5 33.5t-65.5 101.5q0 55 53.5 90.5t121.5 35.5q69 0 154 -25l-5 -11
q-82 24 -137 24q-60 0 -99.5 -34t-39.5 -76q0 -123 174 -127q1 65 41 117t102.5 82t132 46t136.5 16q52 0 74.5 -14.5t22.5 -44.5q0 -42 -65.5 -88t-175.5 -80.5t-227 -42.5q-5 -7 -5 -13q0 -9 4 -17q16 2 37 2q13 0 27 -2t31.5 -6.5t29 -14.5t11.5 -25q0 -13 -13 -20.5
t-30 -7.5q-74 0 -105 50q-80 -45 -179 -149t-99 -161q0 -32 37 -63t101 -31q75 0 145.5 28t116 68t73 80.5t27.5 67.5q0 58 -64 58q-130 0 -230 -134zM840 716q-82 0 -193.5 -79.5t-186.5 -166.5q85 5 189 34.5t182 75.5t78 90q0 46 -69 46zM576 384q0 16 -26.5 25t-47.5 9
q-27 0 -44 -8q9 -17 36 -30.5t50 -13.5q32 0 32 18zM812 916h74q9 -66 66 -106v-14q-50 10 -90 42t-50 78z" />
    <glyph glyph-name="Eacute" unicode="&#xc9;" horiz-adv-x="704" 
d="M368 168l-10 6q104 140 242 140q40 0 63 -22.5t23 -61.5q0 -80 -108.5 -161t-253.5 -81q-100 0 -161 49t-61 129q0 55 32.5 103t83.5 79t104.5 50.5t103.5 27.5q-10 14 -13 29q-92 0 -157.5 33.5t-65.5 101.5q0 55 53.5 90.5t121.5 35.5q69 0 154 -25l-5 -11
q-82 24 -137 24q-60 0 -99.5 -34t-39.5 -76q0 -123 174 -127q1 65 41 117t102.5 82t132 46t136.5 16q52 0 74.5 -14.5t22.5 -44.5q0 -42 -65.5 -88t-175.5 -80.5t-227 -42.5q-5 -7 -5 -13q0 -9 4 -17q16 2 37 2q13 0 27 -2t31.5 -6.5t29 -14.5t11.5 -25q0 -13 -13 -20.5
t-30 -7.5q-74 0 -105 50q-80 -45 -179 -149t-99 -161q0 -32 37 -63t101 -31q75 0 145.5 28t116 68t73 80.5t27.5 67.5q0 58 -64 58q-130 0 -230 -134zM840 716q-82 0 -193.5 -79.5t-186.5 -166.5q85 5 189 34.5t182 75.5t78 90q0 46 -69 46zM576 384q0 16 -26.5 25t-47.5 9
q-27 0 -44 -8q9 -17 36 -30.5t50 -13.5q32 0 32 18zM924 916h74q-10 -45 -50.5 -76.5t-89.5 -43.5v14q57 40 66 106z" />
    <glyph glyph-name="Ecircumflex" unicode="&#xca;" horiz-adv-x="704" 
d="M368 168l-10 6q104 140 242 140q40 0 63 -22.5t23 -61.5q0 -80 -108.5 -161t-253.5 -81q-100 0 -161 49t-61 129q0 55 32.5 103t83.5 79t104.5 50.5t103.5 27.5q-10 14 -13 29q-92 0 -157.5 33.5t-65.5 101.5q0 55 53.5 90.5t121.5 35.5q69 0 154 -25l-5 -11
q-82 24 -137 24q-60 0 -99.5 -34t-39.5 -76q0 -123 174 -127q1 65 41 117t102.5 82t132 46t136.5 16q52 0 74.5 -14.5t22.5 -44.5q0 -42 -65.5 -88t-175.5 -80.5t-227 -42.5q-5 -7 -5 -13q0 -9 4 -17q16 2 37 2q13 0 27 -2t31.5 -6.5t29 -14.5t11.5 -25q0 -13 -13 -20.5
t-30 -7.5q-74 0 -105 50q-80 -45 -179 -149t-99 -161q0 -32 37 -63t101 -31q75 0 145.5 28t116 68t73 80.5t27.5 67.5q0 58 -64 58q-130 0 -230 -134zM840 716q-82 0 -193.5 -79.5t-186.5 -166.5q85 5 189 34.5t182 75.5t78 90q0 46 -69 46zM576 384q0 16 -26.5 25t-47.5 9
q-27 0 -44 -8q9 -17 36 -30.5t50 -13.5q32 0 32 18zM906 916h94q-54 -62 -54 -78q0 -14 14 -28l-4 -14q-3 0 -9 3.5t-19 16.5t-26 34q-65 -42 -146 -48v12q97 27 150 102z" />
    <glyph glyph-name="Edieresis" unicode="&#xcb;" horiz-adv-x="704" 
d="M368 168l-10 6q104 140 242 140q40 0 63 -22.5t23 -61.5q0 -80 -108.5 -161t-253.5 -81q-100 0 -161 49t-61 129q0 55 32.5 103t83.5 79t104.5 50.5t103.5 27.5q-10 14 -13 29q-92 0 -157.5 33.5t-65.5 101.5q0 55 53.5 90.5t121.5 35.5q69 0 154 -25l-5 -11
q-82 24 -137 24q-60 0 -99.5 -34t-39.5 -76q0 -123 174 -127q1 65 41 117t102.5 82t132 46t136.5 16q52 0 74.5 -14.5t22.5 -44.5q0 -42 -65.5 -88t-175.5 -80.5t-227 -42.5q-5 -7 -5 -13q0 -9 4 -17q16 2 37 2q13 0 27 -2t31.5 -6.5t29 -14.5t11.5 -25q0 -13 -13 -20.5
t-30 -7.5q-74 0 -105 50q-80 -45 -179 -149t-99 -161q0 -32 37 -63t101 -31q75 0 145.5 28t116 68t73 80.5t27.5 67.5q0 58 -64 58q-130 0 -230 -134zM840 716q-82 0 -193.5 -79.5t-186.5 -166.5q85 5 189 34.5t182 75.5t78 90q0 46 -69 46zM576 384q0 16 -26.5 25t-47.5 9
q-27 0 -44 -8q9 -17 36 -30.5t50 -13.5q32 0 32 18zM768 848q0 20 17.5 38t36.5 18q42 0 42 -40q0 -20 -17.5 -38t-36.5 -18q-42 0 -42 40zM904 848q0 20 17.5 38t36.5 18q42 0 42 -40q0 -20 -17.5 -38t-36.5 -18q-42 0 -42 40z" />
    <glyph glyph-name="Igrave" unicode="&#xcc;" horiz-adv-x="666" 
d="M968 728l8 -12q-53 -31 -113 -107t-105.5 -154.5t-103 -166t-102.5 -132.5q-168 -168 -380 -168q-24 0 -49.5 5t-52 16.5t-43.5 35t-17 55.5q0 27 17 47.5t43 20.5q25 0 42.5 -17t17.5 -46q0 -26 -17 -37t-34 -14.5t-17 -9.5q0 -7 9.5 -16t37.5 -18.5t67 -9.5
q165 0 332 248q90 134 158.5 208.5t227.5 213.5l-2 4q-117 -56 -187 -56q-39 0 -122.5 19t-124.5 19q-77 0 -158.5 -77.5t-81.5 -172.5q0 -114 96 -114q76 0 145 85t75 175h9q3 -21 3 -40q0 -95 -69 -163.5t-159 -68.5q-50 0 -81 31t-31 97q0 71 54 146.5t135 124.5t155 49
q52 0 150 -19t136 -19q72 0 132 38zM743 916h74q9 -66 66 -106v-14q-50 10 -90 42t-50 78z" />
    <glyph glyph-name="Iacute" unicode="&#xcd;" horiz-adv-x="666" 
d="M968 728l8 -12q-53 -31 -113 -107t-105.5 -154.5t-103 -166t-102.5 -132.5q-168 -168 -380 -168q-24 0 -49.5 5t-52 16.5t-43.5 35t-17 55.5q0 27 17 47.5t43 20.5q25 0 42.5 -17t17.5 -46q0 -26 -17 -37t-34 -14.5t-17 -9.5q0 -7 9.5 -16t37.5 -18.5t67 -9.5
q165 0 332 248q90 134 158.5 208.5t227.5 213.5l-2 4q-117 -56 -187 -56q-39 0 -122.5 19t-124.5 19q-77 0 -158.5 -77.5t-81.5 -172.5q0 -114 96 -114q76 0 145 85t75 175h9q3 -21 3 -40q0 -95 -69 -163.5t-159 -68.5q-50 0 -81 31t-31 97q0 71 54 146.5t135 124.5t155 49
q52 0 150 -19t136 -19q72 0 132 38zM855 916h74q-10 -45 -50.5 -76.5t-89.5 -43.5v14q57 40 66 106z" />
    <glyph glyph-name="Icircumflex" unicode="&#xce;" horiz-adv-x="666" 
d="M968 728l8 -12q-53 -31 -113 -107t-105.5 -154.5t-103 -166t-102.5 -132.5q-168 -168 -380 -168q-24 0 -49.5 5t-52 16.5t-43.5 35t-17 55.5q0 27 17 47.5t43 20.5q25 0 42.5 -17t17.5 -46q0 -26 -17 -37t-34 -14.5t-17 -9.5q0 -7 9.5 -16t37.5 -18.5t67 -9.5
q165 0 332 248q90 134 158.5 208.5t227.5 213.5l-2 4q-117 -56 -187 -56q-39 0 -122.5 19t-124.5 19q-77 0 -158.5 -77.5t-81.5 -172.5q0 -114 96 -114q76 0 145 85t75 175h9q3 -21 3 -40q0 -95 -69 -163.5t-159 -68.5q-50 0 -81 31t-31 97q0 71 54 146.5t135 124.5t155 49
q52 0 150 -19t136 -19q72 0 132 38zM837 916h94q-54 -62 -54 -78q0 -14 14 -28l-4 -14q-3 0 -9 3.5t-19 16.5t-26 34q-65 -42 -146 -48v12q97 27 150 102z" />
    <glyph glyph-name="Idieresis" unicode="&#xcf;" horiz-adv-x="666" 
d="M968 728l8 -12q-53 -31 -113 -107t-105.5 -154.5t-103 -166t-102.5 -132.5q-168 -168 -380 -168q-24 0 -49.5 5t-52 16.5t-43.5 35t-17 55.5q0 27 17 47.5t43 20.5q25 0 42.5 -17t17.5 -46q0 -26 -17 -37t-34 -14.5t-17 -9.5q0 -7 9.5 -16t37.5 -18.5t67 -9.5
q165 0 332 248q90 134 158.5 208.5t227.5 213.5l-2 4q-117 -56 -187 -56q-39 0 -122.5 19t-124.5 19q-77 0 -158.5 -77.5t-81.5 -172.5q0 -114 96 -114q76 0 145 85t75 175h9q3 -21 3 -40q0 -95 -69 -163.5t-159 -68.5q-50 0 -81 31t-31 97q0 71 54 146.5t135 124.5t155 49
q52 0 150 -19t136 -19q72 0 132 38zM719 848q0 20 17.5 38t36.5 18q42 0 42 -40q0 -20 -17.5 -38t-36.5 -18q-42 0 -42 40zM855 848q0 20 17.5 38t36.5 18q42 0 42 -40q0 -20 -17.5 -38t-36.5 -18q-42 0 -42 40z" />
    <glyph glyph-name="Eth" unicode="&#xd0;" horiz-adv-x="852" 
d="M386 258h126q38 56 66 92t72.5 87t99 95t118.5 82q-86 102 -258 102q-78 0 -150 -26t-123 -66.5t-90 -89.5t-58 -95.5t-19 -83.5q0 -28 21 -52.5t65 -24.5q61 0 118 27t92.5 65t56.5 75.5t21 61.5q0 20 -11.5 33.5t-31.5 13.5q-95 0 -181 -140l-10 5q31 57 84 102t104 45
q58 0 58 -61q0 -29 -22.5 -69t-60 -78.5t-95 -65t-118.5 -26.5q-63 0 -100.5 34t-37.5 92q0 51 35.5 109t96.5 109t154.5 84.5t197.5 33.5q179 0 274 -106q93 58 196 58l6 -12q-97 -9 -180 -76q28 -63 28 -132q0 -72 -40 -155.5t-105 -153.5t-156.5 -116.5t-184.5 -46.5
q-108 0 -175 19q-64 -19 -164 -19q-93 0 -93 43q0 22 24.5 35.5t72.5 13.5q65 0 209 -34q48 22 87 66.5t95 127.5h-126zM24 31q0 -13 19.5 -22t56.5 -9q95 0 144 14v2q-137 40 -185 40q-15 0 -25 -8t-10 -17zM772 240h-152q-117 -134 -272 -202v-2q75 -24 148 -24
q79 0 178.5 69.5t171.5 177.5t72 205q0 53 -24 118q-38 -34 -121 -149.5t-135 -174.5h148z" />
    <glyph glyph-name="Ntilde" unicode="&#xd1;" horiz-adv-x="926" 
d="M898 742l4 -6q-40 -51 -54.5 -112.5t-14.5 -179.5q0 -102 -28.5 -196t-112.5 -208l2 -2q57 51 126 129t125 150.5t122 149.5t123.5 133t124 92t127.5 36q38 0 61 -14.5t23 -43.5q0 -21 -14.5 -35.5t-37.5 -14.5t-39.5 13t-16.5 33q0 17 6.5 26.5t13 12t6.5 3.5q0 8 -18 8
q-54 0 -121 -43t-135 -115.5t-127.5 -144.5t-124.5 -153t-100 -118q-120 -127 -196 -162l-6 8q43 43 56.5 81.5t20.5 133.5q13 179 38.5 282.5t98.5 202.5h-2q-69 -47 -140.5 -128.5t-124.5 -159t-126 -171t-137 -154.5q-92 -87 -189 -87q-103 0 -103 84q0 26 16 43t40 17
t38 -15.5t14 -38.5q0 -20 -7.5 -31.5t-16.5 -14t-16.5 -7.5t-7.5 -13q0 -12 40 -12q57 0 114 33.5t108 89t102.5 124t105.5 143.5t108 142t120 124t132 86zM1303 886l6 -2q-16 -37 -37.5 -53.5t-60.5 -16.5q-10 0 -56.5 12t-67.5 12q-8 0 -16.5 -3.5t-19 -9.5t-16.5 -9h-4
q16 25 21.5 33.5t16.5 21.5t21 17t23 4q29 0 86.5 -14t61.5 -14q10 0 24.5 8t17.5 14z" />
    <glyph glyph-name="Ograve" unicode="&#xd2;" horiz-adv-x="704" 
d="M868 430l-10 4q39 41 55.5 72.5t16.5 71.5q0 66 -54 102t-118 36q-79 0 -193 -68.5t-211 -163t-166.5 -197.5t-69.5 -167q0 -68 33.5 -94t92.5 -26q88 0 176 34t156 87.5t122 116t83 122t29 102.5q0 50 -27 80t-80 30q-84 0 -168.5 -69.5t-84.5 -149.5q0 -31 16.5 -49
t47.5 -18q54 0 115 66.5t73 121.5h6q0 -73 -55.5 -136.5t-131.5 -63.5q-83 0 -83 79q0 87 88.5 159t177.5 72q55 0 86.5 -32.5t31.5 -87.5q0 -52 -32 -117t-89.5 -127t-128 -114.5t-155.5 -85t-165 -32.5q-97 0 -145.5 50t-48.5 140t64.5 190t163 178.5t225 130t242.5 51.5
q79 0 134 -39.5t55 -114.5q0 -44 -17.5 -74.5t-56.5 -69.5zM782 916h74q9 -66 66 -106v-14q-50 10 -90 42t-50 78z" />
    <glyph glyph-name="Oacute" unicode="&#xd3;" horiz-adv-x="704" 
d="M868 430l-10 4q39 41 55.5 72.5t16.5 71.5q0 66 -54 102t-118 36q-79 0 -193 -68.5t-211 -163t-166.5 -197.5t-69.5 -167q0 -68 33.5 -94t92.5 -26q88 0 176 34t156 87.5t122 116t83 122t29 102.5q0 50 -27 80t-80 30q-84 0 -168.5 -69.5t-84.5 -149.5q0 -31 16.5 -49
t47.5 -18q54 0 115 66.5t73 121.5h6q0 -73 -55.5 -136.5t-131.5 -63.5q-83 0 -83 79q0 87 88.5 159t177.5 72q55 0 86.5 -32.5t31.5 -87.5q0 -52 -32 -117t-89.5 -127t-128 -114.5t-155.5 -85t-165 -32.5q-97 0 -145.5 50t-48.5 140t64.5 190t163 178.5t225 130t242.5 51.5
q79 0 134 -39.5t55 -114.5q0 -44 -17.5 -74.5t-56.5 -69.5zM784 916h74q-10 -45 -50.5 -76.5t-89.5 -43.5v14q57 40 66 106z" />
    <glyph glyph-name="Ocircumflex" unicode="&#xd4;" horiz-adv-x="704" 
d="M868 430l-10 4q39 41 55.5 72.5t16.5 71.5q0 66 -54 102t-118 36q-79 0 -193 -68.5t-211 -163t-166.5 -197.5t-69.5 -167q0 -68 33.5 -94t92.5 -26q88 0 176 34t156 87.5t122 116t83 122t29 102.5q0 50 -27 80t-80 30q-84 0 -168.5 -69.5t-84.5 -149.5q0 -31 16.5 -49
t47.5 -18q54 0 115 66.5t73 121.5h6q0 -73 -55.5 -136.5t-131.5 -63.5q-83 0 -83 79q0 87 88.5 159t177.5 72q55 0 86.5 -32.5t31.5 -87.5q0 -52 -32 -117t-89.5 -127t-128 -114.5t-155.5 -85t-165 -32.5q-97 0 -145.5 50t-48.5 140t64.5 190t163 178.5t225 130t242.5 51.5
q79 0 134 -39.5t55 -114.5q0 -44 -17.5 -74.5t-56.5 -69.5zM876 916h94q-54 -62 -54 -78q0 -14 14 -28l-4 -14q-3 0 -9 3.5t-19 16.5t-26 34q-65 -42 -146 -48v12q97 27 150 102z" />
    <glyph glyph-name="Otilde" unicode="&#xd5;" horiz-adv-x="704" 
d="M868 430l-10 4q39 41 55.5 72.5t16.5 71.5q0 66 -54 102t-118 36q-79 0 -193 -68.5t-211 -163t-166.5 -197.5t-69.5 -167q0 -68 33.5 -94t92.5 -26q88 0 176 34t156 87.5t122 116t83 122t29 102.5q0 50 -27 80t-80 30q-84 0 -168.5 -69.5t-84.5 -149.5q0 -31 16.5 -49
t47.5 -18q54 0 115 66.5t73 121.5h6q0 -73 -55.5 -136.5t-131.5 -63.5q-83 0 -83 79q0 87 88.5 159t177.5 72q55 0 86.5 -32.5t31.5 -87.5q0 -52 -32 -117t-89.5 -127t-128 -114.5t-155.5 -85t-165 -32.5q-97 0 -145.5 50t-48.5 140t64.5 190t163 178.5t225 130t242.5 51.5
q79 0 134 -39.5t55 -114.5q0 -44 -17.5 -74.5t-56.5 -69.5zM992 886l6 -2q-16 -37 -37.5 -53.5t-60.5 -16.5q-10 0 -56.5 12t-67.5 12q-8 0 -16.5 -3.5t-19 -9.5t-16.5 -9h-4q16 25 21.5 33.5t16.5 21.5t21 17t23 4q29 0 86.5 -14t61.5 -14q10 0 24.5 8t17.5 14z" />
    <glyph glyph-name="Odieresis" unicode="&#xd6;" horiz-adv-x="704" 
d="M868 430l-10 4q39 41 55.5 72.5t16.5 71.5q0 66 -54 102t-118 36q-79 0 -193 -68.5t-211 -163t-166.5 -197.5t-69.5 -167q0 -68 33.5 -94t92.5 -26q88 0 176 34t156 87.5t122 116t83 122t29 102.5q0 50 -27 80t-80 30q-84 0 -168.5 -69.5t-84.5 -149.5q0 -31 16.5 -49
t47.5 -18q54 0 115 66.5t73 121.5h6q0 -73 -55.5 -136.5t-131.5 -63.5q-83 0 -83 79q0 87 88.5 159t177.5 72q55 0 86.5 -32.5t31.5 -87.5q0 -52 -32 -117t-89.5 -127t-128 -114.5t-155.5 -85t-165 -32.5q-97 0 -145.5 50t-48.5 140t64.5 190t163 178.5t225 130t242.5 51.5
q79 0 134 -39.5t55 -114.5q0 -44 -17.5 -74.5t-56.5 -69.5zM588 848q0 20 17.5 38t36.5 18q42 0 42 -40q0 -20 -17.5 -38t-36.5 -18q-42 0 -42 40zM724 848q0 20 17.5 38t36.5 18q42 0 42 -40q0 -20 -17.5 -38t-36.5 -18q-42 0 -42 40z" />
    <glyph glyph-name="multiply" unicode="&#xd7;" horiz-adv-x="666" 
d="M337 253l-190 190l36 36l190 -192l190 192l36 -36l-190 -190l190 -190l-36 -36l-190 190l-190 -190l-36 36z" />
    <glyph glyph-name="Oslash" unicode="&#xd8;" horiz-adv-x="704" 
d="M172 13l279 291q-13 18 -13 49q0 87 88.5 159t177.5 72q10 0 14 -1l115 119q-35 14 -75 14q-79 0 -193 -68.5t-211 -163t-166.5 -197.5t-69.5 -167q0 -82 54 -107zM460 294l-272 -286q21 -8 56 -8q88 0 176 34t156 87.5t122 116t83 122t29 102.5q0 96 -86 108l-256 -267
q17 -17 46 -17q54 0 115 66.5t73 121.5h6q0 -73 -55.5 -136.5t-131.5 -63.5q-41 0 -61 20zM74 -90l89 93q-105 40 -105 175q0 90 64.5 190t163 178.5t225 130t242.5 51.5q50 0 89 -16l84 88l14 -4l-85 -90q87 -38 87 -132q0 -44 -17.5 -74.5t-56.5 -69.5l-10 4
q39 41 55.5 72.5t16.5 71.5q0 43 -23.5 73t-61.5 45l-111 -115q42 -9 65 -39.5t23 -77.5q0 -52 -32 -117t-89.5 -127t-128 -114.5t-155.5 -85t-165 -32.5q-46 0 -73 11l-91 -95zM460 313l247 259h-4q-84 0 -168.5 -69.5t-84.5 -149.5q0 -24 10 -40z" />
    <glyph glyph-name="Ugrave" unicode="&#xd9;" horiz-adv-x="1112" 
d="M1074 668h118l-422 -474q-58 -65 -58 -126q0 -31 19 -49.5t57 -18.5q44 0 95 30t90 70.5t65 83t26 67.5q0 45 -42 45q-64 0 -172 -136l-10 4q34 52 87.5 98t97.5 46q22 0 42.5 -17.5t20.5 -57.5q0 -87 -93.5 -166t-210.5 -79q-66 0 -99 37t-33 77q0 46 14 88h-2
q-108 -114 -171 -158t-123 -44q-53 0 -84.5 32t-31.5 75q0 51 36.5 111t88.5 114t104 106t88.5 102.5t36.5 87.5q0 53 -27 76.5t-95 23.5t-137 -30.5t-120 -76t-83 -99.5t-32 -100q0 -38 22 -60t62 -22q69 0 137 78t68 166h12v-30q0 -88 -64 -157t-153 -69q-45 0 -70.5 24.5
t-25.5 70.5q0 44 31.5 99t82.5 103.5t124.5 81.5t147.5 33q192 0 192 -174q0 -40 -37.5 -95t-91.5 -110t-108 -108.5t-91.5 -104.5t-37.5 -85q0 -23 17.5 -37t47.5 -14q60 0 140 67.5t213 216.5zM856 916h74q9 -66 66 -106v-14q-50 10 -90 42t-50 78z" />
    <glyph glyph-name="Uacute" unicode="&#xda;" horiz-adv-x="1112" 
d="M1074 668h118l-422 -474q-58 -65 -58 -126q0 -31 19 -49.5t57 -18.5q44 0 95 30t90 70.5t65 83t26 67.5q0 45 -42 45q-64 0 -172 -136l-10 4q34 52 87.5 98t97.5 46q22 0 42.5 -17.5t20.5 -57.5q0 -87 -93.5 -166t-210.5 -79q-66 0 -99 37t-33 77q0 46 14 88h-2
q-108 -114 -171 -158t-123 -44q-53 0 -84.5 32t-31.5 75q0 51 36.5 111t88.5 114t104 106t88.5 102.5t36.5 87.5q0 53 -27 76.5t-95 23.5t-137 -30.5t-120 -76t-83 -99.5t-32 -100q0 -38 22 -60t62 -22q69 0 137 78t68 166h12v-30q0 -88 -64 -157t-153 -69q-45 0 -70.5 24.5
t-25.5 70.5q0 44 31.5 99t82.5 103.5t124.5 81.5t147.5 33q192 0 192 -174q0 -40 -37.5 -95t-91.5 -110t-108 -108.5t-91.5 -104.5t-37.5 -85q0 -23 17.5 -37t47.5 -14q60 0 140 67.5t213 216.5zM1078 916h74q-10 -45 -50.5 -76.5t-89.5 -43.5v14q57 40 66 106z" />
    <glyph glyph-name="Ucircumflex" unicode="&#xdb;" horiz-adv-x="1112" 
d="M1074 668h118l-422 -474q-58 -65 -58 -126q0 -31 19 -49.5t57 -18.5q44 0 95 30t90 70.5t65 83t26 67.5q0 45 -42 45q-64 0 -172 -136l-10 4q34 52 87.5 98t97.5 46q22 0 42.5 -17.5t20.5 -57.5q0 -87 -93.5 -166t-210.5 -79q-66 0 -99 37t-33 77q0 46 14 88h-2
q-108 -114 -171 -158t-123 -44q-53 0 -84.5 32t-31.5 75q0 51 36.5 111t88.5 114t104 106t88.5 102.5t36.5 87.5q0 53 -27 76.5t-95 23.5t-137 -30.5t-120 -76t-83 -99.5t-32 -100q0 -38 22 -60t62 -22q69 0 137 78t68 166h12v-30q0 -88 -64 -157t-153 -69q-45 0 -70.5 24.5
t-25.5 70.5q0 44 31.5 99t82.5 103.5t124.5 81.5t147.5 33q192 0 192 -174q0 -40 -37.5 -95t-91.5 -110t-108 -108.5t-91.5 -104.5t-37.5 -85q0 -23 17.5 -37t47.5 -14q60 0 140 67.5t213 216.5zM950 916h94q-54 -62 -54 -78q0 -14 14 -28l-4 -14q-3 0 -9 3.5t-19 16.5
t-26 34q-65 -42 -146 -48v12q97 27 150 102z" />
    <glyph glyph-name="Udieresis" unicode="&#xdc;" horiz-adv-x="1112" 
d="M1074 668h118l-422 -474q-58 -65 -58 -126q0 -31 19 -49.5t57 -18.5q44 0 95 30t90 70.5t65 83t26 67.5q0 45 -42 45q-64 0 -172 -136l-10 4q34 52 87.5 98t97.5 46q22 0 42.5 -17.5t20.5 -57.5q0 -87 -93.5 -166t-210.5 -79q-66 0 -99 37t-33 77q0 46 14 88h-2
q-108 -114 -171 -158t-123 -44q-53 0 -84.5 32t-31.5 75q0 51 36.5 111t88.5 114t104 106t88.5 102.5t36.5 87.5q0 53 -27 76.5t-95 23.5t-137 -30.5t-120 -76t-83 -99.5t-32 -100q0 -38 22 -60t62 -22q69 0 137 78t68 166h12v-30q0 -88 -64 -157t-153 -69q-45 0 -70.5 24.5
t-25.5 70.5q0 44 31.5 99t82.5 103.5t124.5 81.5t147.5 33q192 0 192 -174q0 -40 -37.5 -95t-91.5 -110t-108 -108.5t-91.5 -104.5t-37.5 -85q0 -23 17.5 -37t47.5 -14q60 0 140 67.5t213 216.5zM812 848q0 20 17.5 38t36.5 18q42 0 42 -40q0 -20 -17.5 -38t-36.5 -18
q-42 0 -42 40zM948 848q0 20 17.5 38t36.5 18q42 0 42 -40q0 -20 -17.5 -38t-36.5 -18q-42 0 -42 40z" />
    <glyph glyph-name="Yacute" unicode="&#xdd;" horiz-adv-x="1038" 
d="M114 -190q0 -66 82 -66q62 0 123.5 48.5t200.5 201.5v2q-200 -20 -303 -74.5t-103 -111.5zM730 232l400 452h126l-594 -670q81 10 157.5 43.5t132.5 98t56 144.5v26h10q14 -35 14 -64q0 -57 -26 -102t-65 -72.5t-92 -46.5t-98.5 -27.5t-92.5 -11.5q-125 -132 -249.5 -201
t-208.5 -69q-40 0 -69 18.5t-29 55.5q0 80 120.5 132t312.5 72l110 122l-2 2q-121 -108 -229 -108q-47 0 -76.5 30t-29.5 80q0 38 34.5 91t84 104.5t99 102.5t84 98t34.5 78q0 53 -42.5 79.5t-97.5 26.5q-74 0 -145.5 -33.5t-119.5 -81t-77.5 -98.5t-29.5 -89
q0 -44 24.5 -73t67.5 -29q63 0 143.5 85.5t80.5 158.5q0 16 -4 36l10 4q1 -6 2.5 -17t2.5 -20t1 -17q0 -91 -68.5 -166.5t-167.5 -75.5q-42 0 -73 28t-31 81q0 70 58.5 145.5t146.5 124.5t169 49q64 0 111 -17t71 -43.5t35 -53t11 -52.5q0 -35 -37.5 -89.5t-91.5 -111
t-108 -111t-91.5 -102t-37.5 -72.5q0 -16 17.5 -27t51.5 -11q51 0 121.5 42.5t113.5 82t70 69.5zM931 916h74q-10 -45 -50.5 -76.5t-89.5 -43.5v14q57 40 66 106z" />
    <glyph glyph-name="Thorn" unicode="&#xde;" horiz-adv-x="778" 
d="M506 536l7 -4q-34 -83 -103 -135.5t-124 -52.5q-62 0 -102 35.5t-40 98.5q0 52 33 101t79.5 80t94 50t79.5 19q60 0 165.5 -39t152.5 -39q28 0 78 22.5t76 43.5l6 -6q-5 -5 -40 -31.5t-57.5 -47.5t-62 -71.5t-74.5 -115.5l2 -2q30 18 42.5 25t38.5 16t49 9q62 0 102 -34
t40 -94q0 -75 -56.5 -141t-134.5 -101.5t-151 -35.5q-120 0 -120 92q-94 -96 -175 -143t-191 -47q-93 0 -145.5 32t-52.5 80q0 30 18 50t42 20q22 0 38 -18t16 -40q0 -23 -16.5 -35.5t-33 -19t-16.5 -13.5q0 -8 18.5 -18.5t53 -18t72.5 -7.5q53 0 104.5 35t108.5 102
t118.5 143.5t161 181t209.5 192.5l-2 2q-42 -25 -89 -42.5t-75 -17.5q-68 0 -165 39t-131 39q-72 0 -135 -64t-63 -136q0 -51 35 -78.5t91 -27.5q64 0 122.5 48.5t101.5 119.5zM858 388q0 38 -22.5 59t-49.5 21q-39 0 -76.5 -19.5t-61.5 -52.5q-112 -154 -131 -183t-19 -49
q0 -23 23 -38.5t55 -15.5q64 0 132 51.5t109 116.5t41 110z" />
    <glyph glyph-name="germandbls" unicode="&#xdf;" horiz-adv-x="592" 
d="M-302 -220l548 612q95 106 169 176t126 103t86.5 45t68.5 12q100 0 100 -101q0 -67 -71.5 -140.5t-177.5 -103.5q19 -32 19 -73q0 -61 -23.5 -107t-90.5 -119q-88 -96 -203 -96q-49 0 -73 25.5t-24 62.5t24.5 66.5t61.5 29.5q24 0 40 -15t16 -35t-15 -33t-37 -13
q-52 0 -56 52q-22 -25 -22 -52t16.5 -45.5t38.5 -18.5q25 0 45 12.5t65.5 61t134.5 157.5q66 80 66 117q0 16 -2 20q-40 -10 -60 -10q-42 0 -42 30q0 13 12 21.5t30 8.5q42 0 69 -31q80 54 151.5 142.5t71.5 130.5q0 19 -13 31.5t-39 12.5q-42 0 -105 -56t-205 -216
q-97 -108 -574 -664h-126zM438 400q0 -18 30 -18q27 0 54 10q-15 26 -53 26q-31 0 -31 -18z" />
    <glyph glyph-name="agrave" unicode="&#xe0;" horiz-adv-x="518" 
d="M360 268l34 40h126l-246 -274q-14 -15 -14 -24q0 -10 14 -10q61 0 126 47.5t139 128.5l11 -6q-166 -182 -272 -182q-38 0 -52 19t-14 43q0 19 6 34h-2q-86 -96 -145 -96q-29 0 -45 20.5t-16 55.5q0 59 30.5 109.5t76.5 81.5t94.5 48t88.5 17q26 0 42.5 -12.5t16.5 -26.5
q0 -10 -1 -13h2zM347 279q0 23 -32 23q-23 0 -54 -30t-158 -176q-51 -58 -51 -75q0 -21 23 -21q48 0 140 102q132 147 132 177zM364 528h74q9 -66 66 -106v-14q-50 10 -90 42t-50 78z" />
    <glyph glyph-name="aacute" unicode="&#xe1;" horiz-adv-x="518" 
d="M360 268l34 40h126l-246 -274q-14 -15 -14 -24q0 -10 14 -10q61 0 126 47.5t139 128.5l11 -6q-166 -182 -272 -182q-38 0 -52 19t-14 43q0 19 6 34h-2q-86 -96 -145 -96q-29 0 -45 20.5t-16 55.5q0 59 30.5 109.5t76.5 81.5t94.5 48t88.5 17q26 0 42.5 -12.5t16.5 -26.5
q0 -10 -1 -13h2zM347 279q0 23 -32 23q-23 0 -54 -30t-158 -176q-51 -58 -51 -75q0 -21 23 -21q48 0 140 102q132 147 132 177zM458 528h74q-10 -45 -50.5 -76.5t-89.5 -43.5v14q57 40 66 106z" />
    <glyph glyph-name="acircumflex" unicode="&#xe2;" horiz-adv-x="518" 
d="M360 268l34 40h126l-246 -274q-14 -15 -14 -24q0 -10 14 -10q61 0 126 47.5t139 128.5l11 -6q-166 -182 -272 -182q-38 0 -52 19t-14 43q0 19 6 34h-2q-86 -96 -145 -96q-29 0 -45 20.5t-16 55.5q0 59 30.5 109.5t76.5 81.5t94.5 48t88.5 17q26 0 42.5 -12.5t16.5 -26.5
q0 -10 -1 -13h2zM347 279q0 23 -32 23q-23 0 -54 -30t-158 -176q-51 -58 -51 -75q0 -21 23 -21q48 0 140 102q132 147 132 177zM458 528h94q-54 -62 -54 -78q0 -14 14 -28l-4 -14q-3 0 -9 3.5t-19 16.5t-26 34q-65 -42 -146 -48v12q97 27 150 102z" />
    <glyph glyph-name="atilde" unicode="&#xe3;" horiz-adv-x="518" 
d="M360 268l34 40h126l-246 -274q-14 -15 -14 -24q0 -10 14 -10q61 0 126 47.5t139 128.5l11 -6q-166 -182 -272 -182q-38 0 -52 19t-14 43q0 19 6 34h-2q-86 -96 -145 -96q-29 0 -45 20.5t-16 55.5q0 59 30.5 109.5t76.5 81.5t94.5 48t88.5 17q26 0 42.5 -12.5t16.5 -26.5
q0 -10 -1 -13h2zM347 279q0 23 -32 23q-23 0 -54 -30t-158 -176q-51 -58 -51 -75q0 -21 23 -21q48 0 140 102q132 147 132 177zM552 498l6 -2q-16 -37 -37.5 -53.5t-60.5 -16.5q-10 0 -56.5 12t-67.5 12q-8 0 -16.5 -3.5t-19 -9.5t-16.5 -9h-4q16 25 21.5 33.5t16.5 21.5
t21 17t23 4q29 0 86.5 -14t61.5 -14q10 0 24.5 8t17.5 14z" />
    <glyph glyph-name="adieresis" unicode="&#xe4;" horiz-adv-x="518" 
d="M360 268l34 40h126l-246 -274q-14 -15 -14 -24q0 -10 14 -10q61 0 126 47.5t139 128.5l11 -6q-166 -182 -272 -182q-38 0 -52 19t-14 43q0 19 6 34h-2q-86 -96 -145 -96q-29 0 -45 20.5t-16 55.5q0 59 30.5 109.5t76.5 81.5t94.5 48t88.5 17q26 0 42.5 -12.5t16.5 -26.5
q0 -10 -1 -13h2zM347 279q0 23 -32 23q-23 0 -54 -30t-158 -176q-51 -58 -51 -75q0 -21 23 -21q48 0 140 102q132 147 132 177zM320 460q0 20 17.5 38t36.5 18q42 0 42 -40q0 -20 -17.5 -38t-36.5 -18q-42 0 -42 40zM456 460q0 20 17.5 38t36.5 18q42 0 42 -40
q0 -20 -17.5 -38t-36.5 -18q-42 0 -42 40z" />
    <glyph glyph-name="aring" unicode="&#xe5;" horiz-adv-x="518" 
d="M360 268l34 40h126l-246 -274q-14 -15 -14 -24q0 -10 14 -10q61 0 126 47.5t139 128.5l11 -6q-166 -182 -272 -182q-38 0 -52 19t-14 43q0 19 6 34h-2q-86 -96 -145 -96q-29 0 -45 20.5t-16 55.5q0 59 30.5 109.5t76.5 81.5t94.5 48t88.5 17q26 0 42.5 -12.5t16.5 -26.5
q0 -10 -1 -13h2zM347 279q0 23 -32 23q-23 0 -54 -30t-158 -176q-51 -58 -51 -75q0 -21 23 -21q48 0 140 102q132 147 132 177zM375 494q0 38 26.5 64t63.5 26t63.5 -26t26.5 -64t-26.5 -64t-63.5 -26t-63.5 26t-26.5 64zM399 494q0 -27 19.5 -46.5t46.5 -19.5t46.5 19.5
t19.5 46.5t-19.5 46.5t-46.5 19.5t-46.5 -19.5t-19.5 -46.5z" />
    <glyph glyph-name="ae" unicode="&#xe6;" horiz-adv-x="592" 
d="M367 268l34 40h102l-19 -20l2 -2q18 16 55 16q40 0 40 -37q0 -52 -67 -87t-151 -38q-84 -89 -84 -120q0 -7 6 -13.5t18 -6.5q75 0 157 53t137 123h14q-61 -78 -147 -133t-167 -55q-40 0 -59 18t-19 44q0 22 4 32l-2 2q-83 -96 -143 -96q-29 0 -45 20.5t-16 55.5
q0 59 31 109.5t76 81t92.5 48t84.5 17.5q30 0 47.5 -12.5t17.5 -26.5q0 -10 -1 -13h2zM59 21q0 -21 23 -21q48 0 140 102q132 147 132 177q0 23 -32 23q-23 0 -54 -30t-158 -176q-51 -58 -51 -75zM433 224l-60 -72q62 2 117 42t55 74q0 22 -24 22q-35 0 -88 -66z" />
    <glyph glyph-name="ccedilla" unicode="&#xe7;" horiz-adv-x="370" 
d="M-1 -184v12q53 32 76 57l-2 2q-10 -5 -24 -5t-24 8.5t-10 24.5q0 23 17 43t40 20q16 0 27.5 -11.5t11.5 -34.5q0 -30 -35 -62.5t-77 -53.5zM386 186l10 -4q-43 -76 -135.5 -135t-156.5 -59q-45 0 -66.5 26.5t-21.5 64.5q0 78 90.5 159.5t181.5 81.5q44 0 64 -18.5
t20 -44.5t-14 -41.5t-34 -15.5q-19 0 -32.5 11t-13.5 29q0 20 12 32t34 12q18 0 32 -14h2q0 15 -15 26.5t-27 11.5q-23 0 -51.5 -27.5t-102.5 -118.5q-44 -53 -65.5 -82t-27 -39t-5.5 -17q0 -10 10.5 -17t27.5 -7q58 0 151 58.5t133 127.5z" />
    <glyph glyph-name="egrave" unicode="&#xe8;" horiz-adv-x="334" 
d="M225 252l-89 -100q65 0 119.5 41.5t54.5 91.5q0 23 -17 23q-18 0 -68 -56zM360 176h14q-62 -79 -147.5 -133.5t-155.5 -54.5q-38 0 -58.5 21t-20.5 57q0 68 52 129t117.5 93t118.5 32q30 0 48 -15.5t18 -40.5q0 -58 -65.5 -89.5t-154.5 -34.5q-86 -91 -86 -123
q0 -17 35 -17q67 0 149 53.5t136 122.5zM338 528h74q9 -66 66 -106v-14q-50 10 -90 42t-50 78z" />
    <glyph glyph-name="eacute" unicode="&#xe9;" horiz-adv-x="334" 
d="M225 252l-89 -100q65 0 119.5 41.5t54.5 91.5q0 23 -17 23q-18 0 -68 -56zM360 176h14q-62 -79 -147.5 -133.5t-155.5 -54.5q-38 0 -58.5 21t-20.5 57q0 68 52 129t117.5 93t118.5 32q30 0 48 -15.5t18 -40.5q0 -58 -65.5 -89.5t-154.5 -34.5q-86 -91 -86 -123
q0 -17 35 -17q67 0 149 53.5t136 122.5zM411 528h74q-10 -45 -50.5 -76.5t-89.5 -43.5v14q57 40 66 106z" />
    <glyph glyph-name="ecircumflex" unicode="&#xea;" horiz-adv-x="334" 
d="M225 252l-89 -100q65 0 119.5 41.5t54.5 91.5q0 23 -17 23q-18 0 -68 -56zM360 176h14q-62 -79 -147.5 -133.5t-155.5 -54.5q-38 0 -58.5 21t-20.5 57q0 68 52 129t117.5 93t118.5 32q30 0 48 -15.5t18 -40.5q0 -58 -65.5 -89.5t-154.5 -34.5q-86 -91 -86 -123
q0 -17 35 -17q67 0 149 53.5t136 122.5zM398 528h94q-54 -62 -54 -78q0 -14 14 -28l-4 -14q-3 0 -9 3.5t-19 16.5t-26 34q-65 -42 -146 -48v12q97 27 150 102z" />
    <glyph glyph-name="edieresis" unicode="&#xeb;" horiz-adv-x="334" 
d="M225 252l-89 -100q65 0 119.5 41.5t54.5 91.5q0 23 -17 23q-18 0 -68 -56zM360 176h14q-62 -79 -147.5 -133.5t-155.5 -54.5q-38 0 -58.5 21t-20.5 57q0 68 52 129t117.5 93t118.5 32q30 0 48 -15.5t18 -40.5q0 -58 -65.5 -89.5t-154.5 -34.5q-86 -91 -86 -123
q0 -17 35 -17q67 0 149 53.5t136 122.5zM296 460q0 20 17.5 38t36.5 18q42 0 42 -40q0 -20 -17.5 -38t-36.5 -18q-42 0 -42 40zM432 460q0 20 17.5 38t36.5 18q42 0 42 -40q0 -20 -17.5 -38t-36.5 -18q-42 0 -42 40z" />
    <glyph glyph-name="igrave" unicode="&#xec;" 
d="M48 138l150 170h114l-234 -264q-20 -24 -20 -30q0 -14 17 -14q56 0 243 174l10 -4q-110 -106 -166.5 -144t-90.5 -38q-28 0 -44.5 18t-16.5 47q0 42 38 85zM296 528h74q9 -66 66 -106v-14q-50 10 -90 42t-50 78z" />
    <glyph glyph-name="iacute" unicode="&#xed;" 
d="M48 138l150 170h114l-234 -264q-20 -24 -20 -30q0 -14 17 -14q56 0 243 174l10 -4q-110 -106 -166.5 -144t-90.5 -38q-28 0 -44.5 18t-16.5 47q0 42 38 85zM374 528h74q-10 -45 -50.5 -76.5t-89.5 -43.5v14q57 40 66 106z" />
    <glyph glyph-name="icircumflex" unicode="&#xee;" 
d="M48 138l150 170h114l-234 -264q-20 -24 -20 -30q0 -14 17 -14q56 0 243 174l10 -4q-110 -106 -166.5 -144t-90.5 -38q-28 0 -44.5 18t-16.5 47q0 42 38 85zM382 528h94q-54 -62 -54 -78q0 -14 14 -28l-4 -14q-3 0 -9 3.5t-19 16.5t-26 34q-65 -42 -146 -48v12
q97 27 150 102z" />
    <glyph glyph-name="idieresis" unicode="&#xef;" 
d="M48 138l150 170h114l-234 -264q-20 -24 -20 -30q0 -14 17 -14q56 0 243 174l10 -4q-110 -106 -166.5 -144t-90.5 -38q-28 0 -44.5 18t-16.5 47q0 42 38 85zM243 460q0 20 17.5 38t36.5 18q42 0 42 -40q0 -20 -17.5 -38t-36.5 -18q-42 0 -42 40zM379 460q0 20 17.5 38
t36.5 18q42 0 42 -40q0 -20 -17.5 -38t-36.5 -18q-42 0 -42 40z" />
    <glyph glyph-name="eth" unicode="&#xf0;" horiz-adv-x="444" 
d="M308 308q-37 0 -158 -142q-56 -66 -71 -89.5t-15 -44.5q0 -32 28 -32t123 97q48 49 79 89.5t39.5 57.5t8.5 24q0 13 -9 26.5t-25 13.5zM286 476l118 44q-11 67 -38 122l10 6q57 -68 75 -111l105 39l16 -16l-114 -42q14 -42 14 -94q0 -141 -74 -262q12 -6 39 -6
q48 0 83 46l8 -6q-14 -25 -41 -38.5t-56 -13.5q-21 0 -41 6q-53 -77 -118.5 -119.5t-163.5 -42.5q-45 0 -74.5 27.5t-29.5 66.5q0 60 48.5 116.5t115.5 89t126 32.5q25 0 42.5 -15t17.5 -43h2q22 36 39 90t17 104q0 23 -4 43l-104 -39z" />
    <glyph glyph-name="ntilde" unicode="&#xf1;" horiz-adv-x="482" 
d="M-92 0l276 308h114l-74 -82h2q103 94 152 94q50 0 50 -82q0 -55 -103 -163q-36 -38 -43.5 -47.5t-7.5 -15.5q0 -12 20 -12q31 0 94 55t122 133l10 -6q-149 -194 -234 -194q-60 0 -60 78q0 60 139 191q27 25 27 35q0 16 -18 16q-34 0 -118 -70t-128 -120l-104 -118h-116z
M557 498l6 -2q-16 -37 -37.5 -53.5t-60.5 -16.5q-10 0 -56.5 12t-67.5 12q-8 0 -16.5 -3.5t-19 -9.5t-16.5 -9h-4q16 25 21.5 33.5t16.5 21.5t21 17t23 4q29 0 86.5 -14t61.5 -14q10 0 24.5 8t17.5 14z" />
    <glyph glyph-name="ograve" unicode="&#xf2;" horiz-adv-x="444" 
d="M472 184v-14q-44 -34 -84 -34q-27 0 -38 8q-32 -34 -53 -54t-55 -47.5t-68.5 -41t-69.5 -13.5q-53 0 -76.5 26t-23.5 65q0 72 91.5 156.5t180.5 84.5q30 0 46.5 -5.5t33.5 -24.5q13 6 24 6q14 0 24.5 -9t10.5 -27q0 -22 -12 -44t-45 -62q10 -6 40 -6q16 0 38.5 11.5
t35.5 24.5zM301 201q0 24 14 49.5t29 33.5q-10 12 -26 12q-17 0 -32 -10.5t-53 -47.5q-120 -118 -145 -152q-24 -32 -24 -54q0 -14 10.5 -23t29.5 -9q97 0 232 148q-14 6 -24.5 21t-10.5 32zM356 528h74q9 -66 66 -106v-14q-50 10 -90 42t-50 78z" />
    <glyph glyph-name="oacute" unicode="&#xf3;" horiz-adv-x="444" 
d="M472 184v-14q-44 -34 -84 -34q-27 0 -38 8q-32 -34 -53 -54t-55 -47.5t-68.5 -41t-69.5 -13.5q-53 0 -76.5 26t-23.5 65q0 72 91.5 156.5t180.5 84.5q30 0 46.5 -5.5t33.5 -24.5q13 6 24 6q14 0 24.5 -9t10.5 -27q0 -22 -12 -44t-45 -62q10 -6 40 -6q16 0 38.5 11.5
t35.5 24.5zM301 201q0 24 14 49.5t29 33.5q-10 12 -26 12q-17 0 -32 -10.5t-53 -47.5q-120 -118 -145 -152q-24 -32 -24 -54q0 -14 10.5 -23t29.5 -9q97 0 232 148q-14 6 -24.5 21t-10.5 32zM474 528h74q-10 -45 -50.5 -76.5t-89.5 -43.5v14q57 40 66 106z" />
    <glyph glyph-name="ocircumflex" unicode="&#xf4;" horiz-adv-x="444" 
d="M472 184v-14q-44 -34 -84 -34q-27 0 -38 8q-32 -34 -53 -54t-55 -47.5t-68.5 -41t-69.5 -13.5q-53 0 -76.5 26t-23.5 65q0 72 91.5 156.5t180.5 84.5q30 0 46.5 -5.5t33.5 -24.5q13 6 24 6q14 0 24.5 -9t10.5 -27q0 -22 -12 -44t-45 -62q10 -6 40 -6q16 0 38.5 11.5
t35.5 24.5zM301 201q0 24 14 49.5t29 33.5q-10 12 -26 12q-17 0 -32 -10.5t-53 -47.5q-120 -118 -145 -152q-24 -32 -24 -54q0 -14 10.5 -23t29.5 -9q97 0 232 148q-14 6 -24.5 21t-10.5 32zM437 528h94q-54 -62 -54 -78q0 -14 14 -28l-4 -14q-3 0 -9 3.5t-19 16.5t-26 34
q-65 -42 -146 -48v12q97 27 150 102z" />
    <glyph glyph-name="otilde" unicode="&#xf5;" horiz-adv-x="444" 
d="M472 184v-14q-44 -34 -84 -34q-27 0 -38 8q-32 -34 -53 -54t-55 -47.5t-68.5 -41t-69.5 -13.5q-53 0 -76.5 26t-23.5 65q0 72 91.5 156.5t180.5 84.5q30 0 46.5 -5.5t33.5 -24.5q13 6 24 6q14 0 24.5 -9t10.5 -27q0 -22 -12 -44t-45 -62q10 -6 40 -6q16 0 38.5 11.5
t35.5 24.5zM301 201q0 24 14 49.5t29 33.5q-10 12 -26 12q-17 0 -32 -10.5t-53 -47.5q-120 -118 -145 -152q-24 -32 -24 -54q0 -14 10.5 -23t29.5 -9q97 0 232 148q-14 6 -24.5 21t-10.5 32zM552 498l6 -2q-16 -37 -37.5 -53.5t-60.5 -16.5q-10 0 -56.5 12t-67.5 12
q-8 0 -16.5 -3.5t-19 -9.5t-16.5 -9h-4q16 25 21.5 33.5t16.5 21.5t21 17t23 4q29 0 86.5 -14t61.5 -14q10 0 24.5 8t17.5 14z" />
    <glyph glyph-name="odieresis" unicode="&#xf6;" horiz-adv-x="444" 
d="M301 201q0 24 14 49.5t29 33.5q-10 12 -26 12q-17 0 -32 -10.5t-53 -47.5q-120 -118 -145 -152q-24 -32 -24 -54q0 -14 10.5 -23t29.5 -9q97 0 232 148q-14 6 -24.5 21t-10.5 32zM472 184v-14q-44 -34 -84 -34q-27 0 -38 8q-32 -34 -53 -54t-55 -47.5t-68.5 -41
t-69.5 -13.5q-53 0 -76.5 26t-23.5 65q0 72 91.5 156.5t180.5 84.5q30 0 46.5 -5.5t33.5 -24.5q13 6 24 6q14 0 24.5 -9t10.5 -27q0 -22 -12 -44t-45 -62q10 -6 40 -6q16 0 38.5 11.5t35.5 24.5zM301 460q0 20 17.5 38t36.5 18q42 0 42 -40q0 -20 -17.5 -38t-36.5 -18
q-42 0 -42 40zM437 460q0 20 17.5 38t36.5 18q42 0 42 -40q0 -20 -17.5 -38t-36.5 -18q-42 0 -42 40z" />
    <glyph glyph-name="divide" unicode="&#xf7;" horiz-adv-x="666" 
d="M120 229v48h506v-48h-506zM319 42q0 22 15.5 38t38.5 16t38.5 -16t15.5 -38t-15.5 -38t-38.5 -16t-38.5 16t-15.5 38zM319 464q0 22 15.5 38t38.5 16t38.5 -16t15.5 -38t-15.5 -38t-38.5 -16t-38.5 16t-15.5 38z" />
    <glyph glyph-name="oslash" unicode="&#xf8;" horiz-adv-x="444" 
d="M339 288l-256 -285q10 -4 21 -3q97 0 232 148q-14 6 -24.5 21t-10.5 32q0 24 14 49.5t29 33.5q-1 2 -5 4zM72 10l255 284q-3 2 -9 2q-17 0 -32 -10.5t-53 -47.5q-120 -118 -145 -152q-24 -32 -24 -54q0 -12 8 -22zM18 -50l41 45q-55 20 -55 84q0 72 91.5 156.5
t180.5 84.5q43 0 62 -14l54 60l8 -10l-52 -58l8 -8q13 6 24 6q14 0 24.5 -9t10.5 -27q0 -22 -12 -44t-45 -62q10 -6 40 -6q16 0 38.5 11.5t35.5 24.5v-14q-44 -34 -84 -34q-27 0 -38 8q-32 -34 -53 -54t-55 -47.5t-68.5 -41t-69.5 -13.5q-19 0 -31 4l-45 -50z" />
    <glyph glyph-name="ugrave" unicode="&#xf9;" horiz-adv-x="518" 
d="M80 192l102 116h120l-198 -226q-52 -60 -52 -68q0 -14 20 -14q37 0 93.5 41t92.5 81l166 186h120l-243 -272q-17 -18 -17 -26q0 -10 19 -10q71 0 247 172l10 -6q-182 -178 -258 -178q-30 0 -48 16t-18 43q0 21 12 45h-2q-112 -104 -174 -104q-31 0 -49.5 23t-18.5 54
q0 26 14 49t62 78zM371 528h74q9 -66 66 -106v-14q-50 10 -90 42t-50 78z" />
    <glyph glyph-name="uacute" unicode="&#xfa;" horiz-adv-x="518" 
d="M80 192l102 116h120l-198 -226q-52 -60 -52 -68q0 -14 20 -14q37 0 93.5 41t92.5 81l166 186h120l-243 -272q-17 -18 -17 -26q0 -10 19 -10q71 0 247 172l10 -6q-182 -178 -258 -178q-30 0 -48 16t-18 43q0 21 12 45h-2q-112 -104 -174 -104q-31 0 -49.5 23t-18.5 54
q0 26 14 49t62 78zM461 528h74q-10 -45 -50.5 -76.5t-89.5 -43.5v14q57 40 66 106z" />
    <glyph glyph-name="ucircumflex" unicode="&#xfb;" horiz-adv-x="518" 
d="M80 192l102 116h120l-198 -226q-52 -60 -52 -68q0 -14 20 -14q37 0 93.5 41t92.5 81l166 186h120l-243 -272q-17 -18 -17 -26q0 -10 19 -10q71 0 247 172l10 -6q-182 -178 -258 -178q-30 0 -48 16t-18 43q0 21 12 45h-2q-112 -104 -174 -104q-31 0 -49.5 23t-18.5 54
q0 26 14 49t62 78zM474 528h94q-54 -62 -54 -78q0 -14 14 -28l-4 -14q-3 0 -9 3.5t-19 16.5t-26 34q-65 -42 -146 -48v12q97 27 150 102z" />
    <glyph glyph-name="udieresis" unicode="&#xfc;" horiz-adv-x="518" 
d="M80 192l102 116h120l-198 -226q-52 -60 -52 -68q0 -14 20 -14q37 0 93.5 41t92.5 81l166 186h120l-243 -272q-17 -18 -17 -26q0 -10 19 -10q71 0 247 172l10 -6q-182 -178 -258 -178q-30 0 -48 16t-18 43q0 21 12 45h-2q-112 -104 -174 -104q-31 0 -49.5 23t-18.5 54
q0 26 14 49t62 78zM320 460q0 20 17.5 38t36.5 18q42 0 42 -40q0 -20 -17.5 -38t-36.5 -18q-42 0 -42 40zM456 460q0 20 17.5 38t36.5 18q42 0 42 -40q0 -20 -17.5 -38t-36.5 -18q-42 0 -42 40z" />
    <glyph glyph-name="yacute" unicode="&#xfd;" horiz-adv-x="518" 
d="M62 176l120 132h130l-218 -228q-36 -38 -36 -53t18 -15q35 0 88 34.5t96 83.5l158 178h132l-276 -286h2q58 11 132 57.5t138 108.5l8 -8q-58 -60 -143.5 -111.5t-158.5 -68.5l-42 -44q-98 -102 -195 -163t-149 -61q-22 0 -40 13t-18 37q0 45 86 98t236 106l54 58h-2
q-62 -44 -114 -44q-28 0 -43 16.5t-15 45.5q0 57 52 114zM-180 -218q0 -18 11 -28t27 -10q36 0 84.5 41.5t165.5 176.5l-2 2q-108 -38 -197 -89.5t-89 -92.5zM461 528h74q-10 -45 -50.5 -76.5t-89.5 -43.5v14q57 40 66 106z" />
    <glyph glyph-name="thorn" unicode="&#xfe;" horiz-adv-x="482" 
d="M-236 -220l750 828h114l-306 -334l2 -2q56 48 93 48q25 0 42 -17t17 -47q0 -102 -93 -185t-183 -83q-26 0 -44 13t-18 37q0 15 10.5 25t24.5 10q31 0 31 -34q0 -14 -14.5 -22t-14.5 -10q0 -7 11 -7q37 0 230 258q12 16 12 28q0 16 -21 16q-12 0 -25 -4.5t-29.5 -15.5
t-30 -21t-34 -29.5t-33 -32t-35 -37t-33 -36t-34 -38t-30.5 -34.5l-245 -274h-114z" />
    <glyph glyph-name="ydieresis" unicode="&#xff;" horiz-adv-x="518" 
d="M62 176l120 132h130l-218 -228q-36 -38 -36 -53t18 -15q35 0 88 34.5t96 83.5l158 178h132l-276 -286h2q58 11 132 57.5t138 108.5l8 -8q-58 -60 -143.5 -111.5t-158.5 -68.5l-42 -44q-98 -102 -195 -163t-149 -61q-22 0 -40 13t-18 37q0 45 86 98t236 106l54 58h-2
q-62 -44 -114 -44q-28 0 -43 16.5t-15 45.5q0 57 52 114zM-180 -218q0 -18 11 -28t27 -10q36 0 84.5 41.5t165.5 176.5l-2 2q-108 -38 -197 -89.5t-89 -92.5zM320 460q0 20 17.5 38t36.5 18q42 0 42 -40q0 -20 -17.5 -38t-36.5 -18q-42 0 -42 40zM456 460q0 20 17.5 38
t36.5 18q42 0 42 -40q0 -20 -17.5 -38t-36.5 -18q-42 0 -42 40z" />
    <glyph glyph-name="dotlessi" unicode="&#x131;" 
d="M48 138l150 170h114l-234 -264q-20 -24 -20 -30q0 -14 17 -14q56 0 243 174l10 -4q-110 -106 -166.5 -144t-90.5 -38q-28 0 -44.5 18t-16.5 47q0 42 38 85z" />
    <glyph glyph-name="Lslash" unicode="&#x141;" horiz-adv-x="1000" 
d="M268 197l214 60q46 69 99 141q-79 0 -145 14.5t-113 49.5t-47 87q-3 77 71.5 128.5t174.5 49.5q124 0 232 -59l-8 -12q-105 60 -227 60q-51 0 -91 -18t-61.5 -44.5t-32 -52.5t-10.5 -47q0 -72 73.5 -108t193.5 -36q44 56 103 114.5t126 112t137.5 87.5t124.5 34
q38 0 59 -13t21 -49q0 -49 -68 -109t-170 -108.5t-205 -72.5q-30 -52 -67 -100l2 -2l222 63l-6 -24l-241 -67q-118 -150 -266 -230q142 -46 221 -46q45 0 119.5 25t138.5 70.5t64 91.5q0 54 -58 54q-72 0 -138 -75l-6 8q30 41 68 60.5t73 18.5q38 -1 61.5 -23t23.5 -64
q0 -60 -52.5 -101.5t-126.5 -59t-160 -17.5q-96 0 -244 51q-129 -51 -225 -51q-124 0 -124 64q0 23 23.5 39.5t74.5 16.5q105 0 231 -49q67 65 139 172l-204 -56zM10 51q0 -22 29 -36.5t83 -14.5q40 0 95 13t97 37q-117 46 -214 46q-90 0 -90 -45zM1092 746
q-71 0 -153.5 -78t-198.5 -238q84 18 179 63t163 101.5t68 101.5q0 50 -58 50z" />
    <glyph glyph-name="lslash" unicode="&#x142;" horiz-adv-x="334" 
d="M436 504l-95 -112q75 13 152.5 58.5t126 102t48.5 99.5q0 32 -26 32q-50 0 -206 -180zM-37 223l14 18l139 32q168 190 314 306.5t216 116.5q34 0 34 -42q0 -30 -27 -71.5t-72.5 -82.5t-113 -75t-138.5 -45l-59 -70l2 -2l190 44l-14 -18l-193 -44l-162 -197
q-35 -42 -35 -65q0 -13 11 -20.5t27 -7.5q53 0 131 59t123 115l14 -6q-62 -69 -137.5 -124.5t-126.5 -55.5q-90 0 -90 112q0 60 90 153l-2 2z" />
    <glyph glyph-name="OE" unicode="&#x152;" horiz-adv-x="1296" 
d="M971 168l-10 6q104 140 242 140q40 0 63 -22.5t23 -61.5q0 -80 -108.5 -161t-253.5 -81q-86 0 -149 47t-63 131q0 65 45.5 120.5t115 89.5t153.5 50q-10 14 -13 29q-37 0 -73 6v14q35 -8 72 -8q1 65 41 117t102.5 82t132 46t136.5 16q52 0 74.5 -14.5t22.5 -44.5
q0 -42 -65.5 -88t-175.5 -80.5t-227 -42.5q-5 -7 -5 -13q0 -9 4 -17q16 2 37 2q13 0 27 -2t31.5 -6.5t29 -14.5t11.5 -25q0 -13 -13 -20.5t-30 -7.5q-74 0 -105 50q-60 -29 -164 -140t-104 -164q0 -47 39.5 -73.5t88.5 -26.5q75 0 145.5 28t116 68t73 80.5t27.5 67.5
q0 58 -64 58q-129 0 -230 -134zM1443 716q-82 0 -193.5 -79.5t-186.5 -166.5q85 5 189 34.5t182 75.5t78 90q0 46 -69 46zM1179 384q0 16 -26.5 25t-47.5 9q-27 0 -44 -8q9 -17 36 -30.5t50 -13.5q32 0 32 18zM857 430l-10 4q39 41 55.5 72.5t16.5 71.5q0 66 -54 102
t-118 36q-79 0 -193 -68.5t-211 -163t-166.5 -197.5t-69.5 -167q0 -68 33.5 -94t92.5 -26q88 0 176 34t156 87.5t122 116t83 122t29 102.5q0 50 -27 80t-80 30q-84 0 -168.5 -69.5t-84.5 -149.5q0 -31 16.5 -49t47.5 -18q54 0 115 66.5t73 121.5h6q0 -73 -55.5 -136.5
t-131.5 -63.5q-83 0 -83 79q0 87 88.5 159t177.5 72q55 0 86.5 -32.5t31.5 -87.5q0 -52 -32 -117t-89.5 -127t-128 -114.5t-155.5 -85t-165 -32.5q-97 0 -145.5 50t-48.5 140t64.5 190t163 178.5t225 130t242.5 51.5q79 0 134 -39.5t55 -114.5q0 -44 -17.5 -74.5
t-56.5 -69.5z" />
    <glyph glyph-name="oe" unicode="&#x153;" horiz-adv-x="704" 
d="M574 252l-89 -100q65 0 119.5 41.5t54.5 91.5q0 23 -17 23q-18 0 -68 -56zM709 176h14q-62 -79 -147.5 -133.5t-155.5 -54.5q-38 0 -58.5 21t-20.5 57q0 38 19 74l-10 4q-32 -34 -53 -54t-55 -47.5t-68.5 -41t-69.5 -13.5q-53 0 -76.5 26t-23.5 65q0 72 91.5 156.5
t180.5 84.5q30 0 46.5 -5.5t33.5 -24.5q13 6 24 6q13 0 24 -7.5t11 -20.5q0 -29 -57 -114l7 -2q38 70 122.5 119t141.5 49q30 0 48 -15.5t18 -40.5q0 -58 -65.5 -89.5t-154.5 -34.5q-86 -91 -86 -123q0 -17 35 -17q67 0 149 53.5t136 122.5zM64 38q0 -41 40 -38
q31 2 60.5 13t48.5 21t46 35t37.5 36t39.5 43q-14 6 -24.5 21t-10.5 32q0 24 14 49.5t29 33.5q-10 12 -26 12q-17 0 -32 -10.5t-53 -47.5q-40 -38 -63 -61.5t-51 -53.5t-41.5 -51t-13.5 -34z" />
    <glyph glyph-name="Scaron" unicode="&#x160;" horiz-adv-x="666" 
d="M758 642l-6 -10q-88 52 -218 52q-100 0 -160 -53.5t-60 -126.5q0 -78 63.5 -117t148.5 -39q29 0 52 4q90 126 253.5 251t276.5 125q72 0 72 -60q0 -62 -73.5 -129.5t-180 -119t-220.5 -81.5q-48 -69 -101.5 -127.5t-119 -110.5t-142.5 -82t-155 -30q-67 0 -121.5 32.5
t-54.5 82.5q0 28 16 46.5t46 18.5q25 0 41.5 -16t16.5 -41q0 -21 -14.5 -36t-32.5 -15q-21 0 -21 -14q0 -7 14 -17.5t43.5 -19.5t64.5 -9q54 0 101.5 20.5t87.5 60.5t68.5 76.5t66 90.5t58.5 80q-30 -4 -47 -4q-93 0 -174 50t-81 126q0 80 73.5 138t206.5 58q124 0 212 -54z
M1168 666q0 50 -54 50q-44 0 -87 -21.5t-83.5 -62.5t-73 -81.5t-76.5 -97t-74 -89.5h2q98 27 197.5 73t174 109.5t74.5 119.5zM1091 796h-94q54 62 54 78q0 14 -14 28l4 14q3 0 9 -3.5t19 -16.5t26 -34q65 42 146 48v-12q-97 -27 -150 -102z" />
    <glyph glyph-name="scaron" unicode="&#x161;" horiz-adv-x="370" 
d="M394 170l8 -4q-19 -37 -60.5 -66.5t-81.5 -39.5q-19 -20 -36.5 -33.5t-52.5 -26t-79 -12.5q-53 0 -79.5 25t-26.5 61q0 42 26.5 73t58.5 31q19 0 31 -12.5t12 -31.5q0 -21 -16 -36.5t-36 -15.5q-17 0 -29 13.5t-15 34.5q-20 -18 -20 -62q0 -23 15.5 -39.5t35.5 -16.5
q29 0 69 42l63 67q69 73 69 109q0 28 -21 57l-79 -77l-8 4l81 81q-12 18 -12 27q0 31 21.5 52.5t35.5 21.5q9 0 15.5 -7t6.5 -17q0 -24 -52 -76q60 -103 60 -142q0 -36 -28 -80h2q80 27 122 96zM313 408h-94q54 62 54 78q0 14 -14 28l4 14q3 0 9 -3.5t19 -16.5t26 -34
q65 42 146 48v-12q-97 -27 -150 -102z" />
    <glyph glyph-name="Ydieresis" unicode="&#x178;" horiz-adv-x="1038" 
d="M114 -190q0 -66 82 -66q62 0 123.5 48.5t200.5 201.5v2q-200 -20 -303 -74.5t-103 -111.5zM730 232l400 452h126l-594 -670q81 10 157.5 43.5t132.5 98t56 144.5v26h10q14 -35 14 -64q0 -57 -26 -102t-65 -72.5t-92 -46.5t-98.5 -27.5t-92.5 -11.5q-125 -132 -249.5 -201
t-208.5 -69q-40 0 -69 18.5t-29 55.5q0 80 120.5 132t312.5 72l110 122l-2 2q-121 -108 -229 -108q-47 0 -76.5 30t-29.5 80q0 38 34.5 91t84 104.5t99 102.5t84 98t34.5 78q0 53 -42.5 79.5t-97.5 26.5q-74 0 -145.5 -33.5t-119.5 -81t-77.5 -98.5t-29.5 -89
q0 -44 24.5 -73t67.5 -29q63 0 143.5 85.5t80.5 158.5q0 16 -4 36l10 4q1 -6 2.5 -17t2.5 -20t1 -17q0 -91 -68.5 -166.5t-167.5 -75.5q-42 0 -73 28t-31 81q0 70 58.5 145.5t146.5 124.5t169 49q64 0 111 -17t71 -43.5t35 -53t11 -52.5q0 -35 -37.5 -89.5t-91.5 -111
t-108 -111t-91.5 -102t-37.5 -72.5q0 -16 17.5 -27t51.5 -11q51 0 121.5 42.5t113.5 82t70 69.5zM775 848q0 20 17.5 38t36.5 18q42 0 42 -40q0 -20 -17.5 -38t-36.5 -18q-42 0 -42 40zM911 848q0 20 17.5 38t36.5 18q42 0 42 -40q0 -20 -17.5 -38t-36.5 -18q-42 0 -42 40z
" />
    <glyph glyph-name="Zcaron" unicode="&#x17d;" horiz-adv-x="1074" 
d="M530 372l12 28q17 -1 51 -2t51 -2q97 117 171 191l-2 2q-27 -5 -41 -5q-40 0 -147.5 42t-152.5 42q-63 0 -138.5 -81t-75.5 -166q0 -43 23.5 -68t56.5 -25q52 0 101.5 42.5t78.5 101t32 111.5h12q0 -108 -61.5 -187.5t-158.5 -79.5q-43 0 -69.5 29t-26.5 78
q0 74 55.5 146.5t135.5 115.5t153 43q40 0 87.5 -14.5t109.5 -41t85 -34.5q111 90 158 90q16 0 25 -7.5t9 -18.5q0 -21 -24.5 -40.5t-61.5 -32.5t-68.5 -21t-55.5 -12q-21 -22 -90 -102.5t-84 -97.5q24 0 51 1t60 2.5t51 2.5l-10 -30q-27 2 -80 6t-80 6q-75 -94 -174 -196
q39 -12 102 -46.5t122.5 -58t115.5 -23.5q53 0 96 21t66.5 51.5t35.5 58.5t12 48q0 33 -22 51t-56 18q-37 0 -69 -17.5t-46.5 -34t-38.5 -48.5q-2 -2 -2.5 -3t-1.5 -2.5t-2 -2.5l-12 4q73 116 174 116q38 0 63 -20.5t25 -59.5q0 -34 -23 -76.5t-62.5 -82t-101 -66.5
t-129.5 -27q-41 0 -98.5 24t-123.5 59.5t-94 46.5q-146 -130 -268 -130q-47 0 -80.5 22t-33.5 75q0 39 27 68t68 44t80.5 22t74.5 7q92 0 178 -30q26 31 80 94t80 94q-69 -4 -104 -12zM212 178q-30 0 -64 -9.5t-62 -32.5t-28 -54q0 -41 29 -61.5t71 -20.5q122 0 258 124
q-116 54 -204 54zM1052 698q0 18 -23 18q-38 0 -143 -82v-2q46 0 86.5 12.5t60 27.5t19.5 26zM875 796h-94q54 62 54 78q0 14 -14 28l4 14q3 0 9 -3.5t19 -16.5t26 -34q65 42 146 48v-12q-97 -27 -150 -102z" />
    <glyph glyph-name="zcaron" unicode="&#x17e;" horiz-adv-x="482" 
d="M229 104l54 64l-2 2q-12 -4 -28 -4q-25 0 -48.5 13t-23.5 35q0 17 16 37t16 25q0 8 -14 8q-19 0 -65 -31t-75 -63l-8 6q36 41 99.5 82.5t101.5 41.5q26 0 41.5 -15.5t15.5 -31.5t-28 -46.5t-28 -36.5q0 -12 16 -12q15 0 26 8l72 82q45 52 76 52q7 0 12.5 -6.5t5.5 -14.5
q0 -24 -46.5 -60t-117.5 -67l-60 -74q10 -6 27.5 -18t26.5 -17t23.5 -10t30.5 -5q55 0 146 134l8 -6q-80 -109 -125.5 -148.5t-93.5 -39.5t-111 45q-46 -45 -116 -45q-31 0 -50.5 17.5t-19.5 42.5q0 39 33 67.5t97 28.5q48 0 116 -40zM45 96q-19 0 -34.5 -11t-15.5 -37
q0 -19 15.5 -33.5t44.5 -14.5q54 0 106 38q-3 2 -12.5 9.5t-13.5 10.5t-13 9.5t-14.5 9.5t-14.5 7.5t-15.5 6.5t-15.5 3.5t-17 1.5zM449 298q0 10 -10 10q-23 0 -116 -109l-6 -7h2q33 16 81 50t49 56zM369 424h-94q54 62 54 78q0 14 -14 28l4 14q3 0 9 -3.5t19 -16.5t26 -34
q65 42 146 48v-12q-97 -27 -150 -102z" />
    <glyph glyph-name="florin" unicode="&#x192;" horiz-adv-x="630" 
d="M214 386l18 24h146q43 71 85.5 126.5t102 114t131 91t148.5 32.5q66 0 104.5 -36.5t38.5 -95.5q0 -32 -17 -52t-44 -20q-29 0 -45 15t-16 39q0 23 15.5 38.5t41.5 15.5q35 0 51 -25l2 2q-20 107 -129 107q-27 0 -56 -12t-53 -27.5t-53.5 -46t-47.5 -51t-46 -60t-39 -56
t-36 -56t-28 -43.5h150l-16 -24h-150q-71 -117 -126 -200t-120 -166t-120 -134t-116.5 -82.5t-119.5 -31.5q-64 0 -102 37t-38 95q0 34 17.5 54t41.5 20q25 0 40 -15.5t15 -40.5q0 -23 -14 -37.5t-38 -14.5q-28 0 -48 23l-2 -2q7 -51 40.5 -79t87.5 -28q30 0 58 11.5t54 29
t59.5 58t62 79t74.5 112.5t84 138t102 174h-150z" />
    <glyph glyph-name="circumflex" unicode="&#x2c6;" 
d="M302 528h94q-54 -62 -54 -78q0 -14 14 -28l-4 -14q-3 0 -9 3.5t-19 16.5t-26 34q-65 -42 -146 -48v12q97 27 150 102z" />
    <glyph glyph-name="caron" unicode="&#x2c7;" 
d="M276 408h-94q54 62 54 78q0 14 -14 28l4 14q3 0 9 -3.5t19 -16.5t26 -34q65 42 146 48v-12q-97 -27 -150 -102z" />
    <glyph glyph-name="uni02C9" unicode="&#x2c9;" 
d="M162 480h226l-12 -36h-228z" />
    <glyph glyph-name="breve" unicode="&#x2d8;" 
d="M372 526h20q-72 -118 -192 -118q-30 0 -50 22.5t-20 56.5q0 20 6 35h12q-6 -9 -6 -18q0 -12 15 -24t47 -12q76 0 111 11t57 47z" />
    <glyph glyph-name="dotaccent" unicode="&#x2d9;" 
d="M232 460q0 20 17.5 38t36.5 18q42 0 42 -40q0 -20 -17.5 -38t-36.5 -18q-42 0 -42 40z" />
    <glyph glyph-name="ring" unicode="&#x2da;" 
d="M254 510q0 38 26 64t64 26t64 -26t26 -64t-26 -64t-64 -26t-64 26t-26 64zM278 510q0 -27 19.5 -46.5t46.5 -19.5t46.5 19.5t19.5 46.5t-19.5 46.5t-46.5 19.5t-46.5 -19.5t-19.5 -46.5z" />
    <glyph glyph-name="ogonek" unicode="&#x2db;" 
d="M141 18v-7q-38 -25 -59.5 -64t-21.5 -62q0 -17 21 -17q17 0 39 14v-22q-25 -28 -58 -28q-24 0 -37 11t-13 30q0 43 45.5 87.5t83.5 57.5z" />
    <glyph glyph-name="tilde" unicode="&#x2dc;" 
d="M388 498l6 -2q-16 -37 -37.5 -53.5t-60.5 -16.5q-10 0 -56.5 12t-67.5 12q-8 0 -16.5 -3.5t-19 -9.5t-16.5 -9h-4q16 25 21.5 33.5t16.5 21.5t21 17t23 4q29 0 86.5 -14t61.5 -14q10 0 24.5 8t17.5 14z" />
    <glyph glyph-name="hungarumlaut" unicode="&#x2dd;" 
d="M240 528h74q-10 -45 -50.5 -76.5t-89.5 -43.5v14q57 40 66 106zM400 528h74q-10 -45 -50.5 -76.5t-89.5 -43.5v14q57 40 66 106z" />
    <glyph glyph-name="uni03A9" unicode="&#x3a9;" horiz-adv-x="775" 
d="M642 113l-120 -113h-236l9 18l42 23q42 23 56.5 32t55.5 33.5t65.5 43t59 44.5t62.5 53.5t52 56.5q47 57 71 102t25 73t-14.5 47t-41.5 26.5t-61 7.5q-103 0 -224 -65t-232 -198q-26 -31 -44 -62.5t-27 -51t-13 -50.5t-4.5 -40t1.5 -41t2 -34l-22 -18h-232l70 113l19 2
q-21 -46 -17 -59t35 -13h119q-14 26 -19.5 43t-8 51t17.5 76t61 91q105 124 257 201.5t281 77.5q134 0 156.5 -71t-80.5 -197q-66 -78 -165 -141t-233 -131h121q35 0 58 12t81 60z" />
    <glyph glyph-name="uni03BC" unicode="&#x3bc;" horiz-adv-x="518" 
d="M-291 -220l473 528h120l-198 -226q-52 -60 -52 -68q0 -14 20 -14q37 0 93.5 41t92.5 81l166 186h120l-243 -272q-17 -18 -17 -26q0 -10 19 -10q71 0 247 172l10 -6q-182 -178 -258 -178q-30 0 -48 16t-18 43q0 21 12 45h-2q-112 -104 -174 -104q-23 0 -33 20l-201 -228
h-129z" />
    <glyph glyph-name="pi" unicode="&#x3c0;" horiz-adv-x="556" 
d="M658 407l10 -10q-47 -41 -89 -65q-24 -3 -72 -3q-41 -42 -190 -221q-66 -79 -20 -79q25 0 79 32v-15q-81 -56 -140 -56q-48 0 -34 36q9 24 45 67q67 80 211 238q-65 2 -185 2l-17 -20q-72 -86 -148 -160t-117.5 -108t-56.5 -41q-41 -11 -61 -14l7 12q88 49 191 147
t176 185q-32 0 -65 -8t-51.5 -16t-53.5 -25l1 15q88 51 133 64q45 14 89 14q31 0 126 -1.5t147 -1.5q37 0 85 32z" />
    <glyph glyph-name="uni2010" unicode="&#x2010;" horiz-adv-x="518" 
d="M191 172l6 36q44 -6 66 -6q23 0 69 6l-6 -36q-44 6 -66 6q-23 0 -69 -6z" />
    <glyph glyph-name="endash" unicode="&#x2013;" horiz-adv-x="500" 
d="M-6 178l12 24h500l-12 -24h-500z" />
    <glyph glyph-name="emdash" unicode="&#x2014;" horiz-adv-x="1000" 
d="M-6 178l12 24h1000l-12 -24h-1000z" />
    <glyph glyph-name="quoteleft" unicode="&#x2018;" 
d="M462 728l8 -8q-70 -36 -96 -80q12 4 22 4q13 0 25.5 -8.5t12.5 -27.5t-16 -33.5t-36 -14.5q-17 0 -30.5 13t-13.5 27q0 58 124 128z" />
    <glyph glyph-name="quoteright" unicode="&#x2019;" 
d="M346 560l-8 8q70 36 96 80q-12 -4 -22 -4q-13 0 -25.5 8.5t-12.5 27.5t16 33.5t36 14.5q17 0 30.5 -13t13.5 -27q0 -58 -124 -128z" />
    <glyph glyph-name="quotesinglbase" unicode="&#x201a;" 
d="M-2 -84l-8 8q70 36 96 80q-12 -4 -22 -4q-13 0 -25.5 8.5t-12.5 27.5t16 33.5t36 14.5q17 0 30.5 -13t13.5 -27q0 -58 -124 -128z" />
    <glyph glyph-name="quotedblleft" unicode="&#x201c;" horiz-adv-x="370" 
d="M560 728l8 -8q-70 -36 -96 -80q12 4 22 4q13 0 25.5 -8.5t12.5 -27.5t-16 -33.5t-36 -14.5q-17 0 -30.5 13t-13.5 27q0 58 124 128zM438 728l8 -8q-70 -36 -96 -80q12 4 22 4q13 0 25.5 -8.5t12.5 -27.5t-16 -33.5t-36 -14.5q-17 0 -30.5 13t-13.5 27q0 58 124 128z" />
    <glyph glyph-name="quotedblright" unicode="&#x201d;" horiz-adv-x="370" 
d="M322 560l-8 8q70 36 96 80q-12 -4 -22 -4q-13 0 -25.5 8.5t-12.5 27.5t16 33.5t36 14.5q17 0 30.5 -13t13.5 -27q0 -58 -124 -128zM444 560l-8 8q70 36 96 80q-12 -4 -22 -4q-13 0 -25.5 8.5t-12.5 27.5t16 33.5t36 14.5q17 0 30.5 -13t13.5 -27q0 -58 -124 -128z" />
    <glyph glyph-name="quotedblbase" unicode="&#x201e;" horiz-adv-x="370" 
d="M-16 -84l-8 8q70 36 96 80q-12 -4 -22 -4q-13 0 -25.5 8.5t-12.5 27.5t16 33.5t36 14.5q17 0 30.5 -13t13.5 -27q0 -58 -124 -128zM102 -84l-8 8q70 36 96 80q-12 -4 -22 -4q-13 0 -25.5 8.5t-12.5 27.5t16 33.5t36 14.5q17 0 30.5 -13t13.5 -27q0 -58 -124 -128z" />
    <glyph glyph-name="dagger" unicode="&#x2020;" horiz-adv-x="740" 
d="M221 438l40 54q90 -9 267 -9q91 121 176 245h76q-32 -24 -197 -245q125 0 276 9l-38 -58q-124 13 -268 13q-144 -189 -273 -366t-142 -207h-88q250 299 451 573q-138 0 -280 -9z" />
    <glyph glyph-name="daggerdbl" unicode="&#x2021;" horiz-adv-x="740" 
d="M0 94l40 54q90 -9 272 -9q117 150 245 328q-139 0 -281 -9l40 54q90 -9 268 -9q74 100 160 225h76q-26 -19 -182 -225q125 0 276 9l-38 -58q-124 13 -268 13q-109 -142 -245 -328q124 0 275 9l-38 -58q-124 13 -265 13q-147 -205 -157 -229h-76q90 110 181 229
q-141 0 -283 -9z" />
    <glyph glyph-name="bullet" unicode="&#x2022;" horiz-adv-x="666" 
d="M242 358q0 75 52 127.5t126 52.5t127 -52.5t53 -127.5q0 -73 -53 -125.5t-127 -52.5t-126 52t-52 126z" />
    <glyph glyph-name="ellipsis" unicode="&#x2026;" horiz-adv-x="1000" 
d="M129 40q0 20 17.5 38t36.5 18q42 0 42 -40q0 -20 -17.5 -38t-36.5 -18q-42 0 -42 40zM462 40q0 20 17.5 38t36.5 18q42 0 42 -40q0 -20 -17.5 -38t-36.5 -18q-42 0 -42 40zM795 40q0 20 17.5 38t36.5 18q42 0 42 -40q0 -20 -17.5 -38t-36.5 -18q-42 0 -42 40z" />
    <glyph glyph-name="perthousand" unicode="&#x2030;" horiz-adv-x="1444" 
d="M1412 364h12q5 -54 -48 -88q-49 -104 -146 -196t-184 -92q-32 0 -52 20.5t-20 57.5q0 64 58 139.5t135 125t133 49.5q35 0 62 -10l-4 -6q-16 4 -40 4q-40 0 -128 -92q-107 -112 -143.5 -160.5t-36.5 -78.5q0 -17 9 -27t21 -10q75 0 172.5 92t145.5 184q-50 0 -50 39
q0 13 10 23t23 10q39 0 39 -56q32 23 32 72zM1004 364h12q5 -54 -48 -88q-49 -104 -146 -196t-184 -92q-32 0 -52 20.5t-20 57.5q0 64 58 139.5t135 125t133 49.5q35 0 62 -10l-4 -6q-16 4 -40 4q-40 0 -128 -92q-107 -112 -143.5 -160.5t-36.5 -78.5q0 -17 9 -27t21 -10
q75 0 172.5 92t145.5 184q-50 0 -50 39q0 13 10 23t23 10q39 0 39 -56q32 23 32 72zM594 568h12q5 -54 -48 -88q-49 -104 -146 -196t-184 -92q-32 0 -52 20.5t-20 57.5q0 64 58 139.5t135 125t133 49.5q35 0 62 -10l-4 -6q-16 4 -40 4q-40 0 -128 -92
q-107 -112 -143.5 -160.5t-36.5 -78.5q0 -17 9 -27t21 -10q75 0 172.5 92t145.5 184q-50 0 -50 39q0 13 10 23t23 10q39 0 39 -56q32 23 32 72zM224 -30l622 632h36l-622 -632h-36z" />
    <glyph glyph-name="guilsinglleft" unicode="&#x2039;" horiz-adv-x="334" 
d="M312 306l8 -8q-88 -100 -138 -130q-4 -102 -44 -164l-12 4q8 50 8 95q0 49 -12 97q45 11 104.5 45.5t85.5 60.5z" />
    <glyph glyph-name="guilsinglright" unicode="&#x203a;" horiz-adv-x="334" 
d="M32 4l-8 8q88 100 138 130q4 102 44 164l12 -4q-8 -50 -8 -95q0 -49 12 -97q-45 -11 -104.5 -45.5t-85.5 -60.5z" />
    <glyph glyph-name="fraction" unicode="&#x2044;" horiz-adv-x="334" 
d="M-122 -30l622 632h36l-622 -632h-36z" />
    <glyph glyph-name="Euro" unicode="&#x20ac;" horiz-adv-x="848" 
d="M456 146l-6 6q34 47 74 84q78 72 156 72q76 0 76 -72q0 -52 -39 -105q-40 -58 -114 -100.5t-179 -42.5q-69 0 -110 29q-35 24 -51 66q-11 28 -11 57q0 40 16 82q27 75 92 151h-200l16 18h198q27 32 50 55h-202l17 18h204q106 98 225 166q73 42 148 68q83 30 155 30
q53 0 77 -21.5t24 -54.5q0 -24 -9 -45q-11 -24 -33.5 -39.5t-47.5 -15.5q-13 0 -25 6q-31 16 -31 49q0 18 8 30q16 23 47 23q26 0 40.5 -18.5t12.5 -45.5q10 12 14 18q12 20 12 36q0 23 -11 37q-22 29 -72 29q-55 0 -129 -36q-50 -24 -108 -67q-80 -59 -164 -149h225
l-16 -18h-226q-18 -19 -50 -55h192l-15 -18h-193q-109 -122 -154 -207q-27 -54 -27 -94q0 -30 20 -50q23 -22 70 -22q78 0 156 42q79 42 134 110q52 64 52 96q0 18 -10 29q-16 19 -53 19q-74 0 -153 -72q-37 -34 -72 -78z" />
    <glyph glyph-name="afii61289" unicode="&#x2113;" horiz-adv-x="381" 
d="M240 96l2 -14q-134 -92 -230 -92q-55 0 -60 32q-3 36 67 122l60 71l-105 -48l4 17l122 57l88 105q97 115 145 161.5t106 76.5q55 30 94 30q50 0 21 -58q-12 -25 -35 -52q-100 -119 -363 -258l-58 -69q-107 -129 -57 -147q10 -4 27 -4q62 0 172 70zM286 401l-103 -123
q203 114 292 221q53 63 40 84q-4 6 -15 6q-31 0 -81 -45t-133 -143z" />
    <glyph glyph-name="trademark" unicode="&#x2122;" horiz-adv-x="990" 
d="M336 366v326h-58q-30 0 -44.5 -17t-21.5 -49h-12v90h332v-90h-12q-7 32 -21.5 49t-44.5 17h-58v-326q0 -27 12 -36.5t36 -9.5v-12h-156v12q24 0 36 9.5t12 36.5zM646 354v306q0 18 -22.5 31t-45.5 13v12h110l160 -322l168 322h96v-12q-31 -1 -44.5 -16t-13.5 -45v-289
q0 -34 33 -34h15v-12h-156v12h15q33 0 33 34v266h-2l-156 -312h-8l-156 312h-2v-266q0 -34 33 -34h15v-12h-120v12h15q33 0 33 34z" />
    <glyph glyph-name="Omega" unicode="&#x2126;" horiz-adv-x="775" 
d="M642 113l-120 -113h-236l9 18l42 23q42 23 56.5 32t55.5 33.5t65.5 43t59 44.5t62.5 53.5t52 56.5q47 57 71 102t25 73t-14.5 47t-41.5 26.5t-61 7.5q-103 0 -224 -65t-232 -198q-26 -31 -44 -62.5t-27 -51t-13 -50.5t-4.5 -40t1.5 -41t2 -34l-22 -18h-232l70 113l19 2
q-21 -46 -17 -59t35 -13h119q-14 26 -19.5 43t-8 51t17.5 76t61 91q105 124 257 201.5t281 77.5q134 0 156.5 -71t-80.5 -197q-66 -78 -165 -141t-233 -131h121q35 0 58 12t81 60z" />
    <glyph glyph-name="estimated" unicode="&#x212e;" horiz-adv-x="1016" 
d="M988 277h-535q-5 0 -5 -3v-162q0 -10 7 -19q85 -88 203 -88q127 0 213 99h48q-45 -53 -114 -84t-148 -31q-137 0 -233.5 86.5t-96.5 209.5q0 124 96.5 211t233.5 87t234 -87t97 -211v-8zM867 298v163q0 11 -8 19q-85 85 -201 85q-117 0 -202 -87q-8 -8 -8 -20v-160
q0 -5 5 -5h410q4 0 4 5z" />
    <glyph glyph-name="partialdiff" unicode="&#x2202;" horiz-adv-x="526" 
d="M385 374h1q41 0 68 -20.5t22 -56.5q54 58 75 84q64 76 90 142q16 34 0 67.5t-61 33.5q-69 0 -184 -53q-11 -1 -10 10q0 16 20 31q102 41 179 41q67 0 90 -29.5t10 -88.5q-17 -77 -115 -193q-113 -135 -233 -221q-181 -132 -309 -132q-82 0 -90.5 49.5t58.5 129.5
q69 83 176 142q118 64 213 64zM377 343h-1q-79 0 -171 -51q-88 -51 -162 -140q-32 -38 -43.5 -69t1 -49.5t48.5 -18.5q85 0 206 87q81 56 189 163q7 25 -8.5 51.5t-58.5 26.5z" />
    <glyph glyph-name="uni2206" unicode="&#x2206;" horiz-adv-x="637" 
d="M410 0h-563l12 15l732 558l37 9l-206 -567zM365 32l182 488l-630 -488h448z" />
    <glyph glyph-name="product" unicode="&#x220f;" horiz-adv-x="969" 
d="M941 577v-18q-65 -4 -77.5 -10.5t-12.5 -32.5v-512q0 -35 13 -44t75 -13v-18h-235v18q66 5 79 12.5t13 44.5v521q0 18 -6 22.5t-27 4.5h-264q-20 0 -25.5 -3.5t-5.5 -17.5v-527q0 -35 11.5 -44t71.5 -13v-18h-225v18q61 5 74 13t13 44v512q0 26 -13 32.5t-78 10.5v18h619
z" />
    <glyph glyph-name="summation" unicode="&#x2211;" horiz-adv-x="849" 
d="M825 85l-41 -158h-462v17l228 306l-222 310v17h455q0 -6 2 -28.5t5 -56t5 -56.5l-19 -5q-12 74 -33 101q-9 12 -28.5 16.5t-72.5 4.5h-238l198 -276l-223 -304h290q66 0 85.5 16.5t50.5 101.5z" />
    <glyph glyph-name="minus" unicode="&#x2212;" horiz-adv-x="666" 
d="M120 229v48h506v-48h-506z" />
    <glyph glyph-name="uni2215" unicode="&#x2215;" horiz-adv-x="334" 
d="M-122 -30l622 632h36l-622 -632h-36z" />
    <glyph glyph-name="uni2219" unicode="&#x2219;" 
d="M142 245q0 20 17.5 38t36.5 18q42 0 42 -40q0 -20 -17.5 -38t-36.5 -18q-42 0 -42 40z" />
    <glyph glyph-name="radical" unicode="&#x221a;" horiz-adv-x="834" 
d="M816 752l-157 -861l-14 -11l-223 475l-85 -46l-10 24l132 70l189 -416h2l137 774z" />
    <glyph glyph-name="infinity" unicode="&#x221e;" horiz-adv-x="849" 
d="M800 238v-1q0 -63 -41.5 -103t-97.5 -40q-42 0 -79 26.5t-93 86.5q-26 -28 -40 -42t-38 -34t-48 -28.5t-51 -8.5q-56 0 -96.5 41t-40.5 99q0 62 40.5 102.5t102.5 40.5q47 0 87.5 -30t86.5 -84q30 33 40 43.5t36 32.5t49.5 30t50.5 8q59 0 95.5 -39t36.5 -100zM317 131h1
q15 0 30.5 5.5t26.5 12t26.5 19.5t23 20.5t23 24t19.5 20.5q-30 36 -45 53t-47 36.5t-64 19.5q-43 0 -69.5 -32t-26.5 -77q0 -43 28.5 -72.5t73.5 -29.5zM663 342h-1q-22 0 -46.5 -13t-38.5 -25.5t-37.5 -37.5t-27.5 -29q56 -59 87 -82.5t65 -23.5q44 0 70.5 31.5t26.5 72.5
q0 50 -27.5 78.5t-70.5 28.5z" />
    <glyph glyph-name="integral" unicode="&#x222b;" horiz-adv-x="633" 
d="M453 33l-17 346q-9 189 23 267t100 78q16 0 31 -8.5t16 -24.5q0 -14 -8 -21.5t-21 -7.5t-24.5 16.5t-21.5 16.5q-13 0 -23.5 -11.5t-19 -50t-5.5 -99.5l16 -338q5 -113 -2.5 -189.5t-27 -113t-41 -50t-51.5 -13.5q-22 0 -35 10.5t-13 25.5q-1 11 9.5 20.5t25.5 9.5
q10 0 20.5 -17t20.5 -17q25 0 38.5 48t9.5 123z" />
    <glyph glyph-name="approxequal" unicode="&#x2248;" horiz-adv-x="670" 
d="M598 362l24 -23q-50 -81 -123 -81q-19 0 -39.5 6t-32.5 11.5t-45 22.5q-60 30 -93 30q-31 0 -54 -18t-47 -50l-25 22q49 83 133 83q16 0 33 -4.5t27 -9.5l27 -13.5t22 -11.5q3 -1 14 -7t14 -7.5t12 -5.5t13.5 -5t12 -3.5t15 -3t15.5 -0.5q54 0 97 68zM598 208l24 -23
q-51 -82 -123 -82q-8 0 -15.5 1t-13.5 2t-14.5 3.5t-12.5 4t-14.5 6.5t-13.5 6.5l-16 8l-17 8.5q-60 31 -93 31q-31 0 -54 -18t-47 -51l-25 23q49 83 132 83q16 0 33.5 -4.5t27 -8.5t27.5 -13.5t22 -11.5q3 -2 13 -7t13.5 -7t12 -6t13.5 -5.5t12.5 -3.5t15.5 -3t16 -1
q30 0 52 16t45 52z" />
    <glyph glyph-name="notequal" unicode="&#x2260;" horiz-adv-x="743" 
d="M578 436l-46 -95h161v-37h-178l-68 -141h246v-37h-264l-55 -115l-31 16l47 99h-151v37h169l68 141h-237v37h254l54 111z" />
    <glyph glyph-name="lessequal" unicode="&#x2264;" horiz-adv-x="796" 
d="M745 68l-446 204v40l446 204v-44l-402 -178v-2l402 -180v-44zM747 -6h-455v37h455v-37z" />
    <glyph glyph-name="greaterequal" unicode="&#x2265;" horiz-adv-x="797" 
d="M299 516l446 -204v-40l-446 -204v44l401 179v2l-401 179v44zM746 -6h-453v37h453v-37z" />
    <glyph glyph-name="lozenge" unicode="&#x25ca;" horiz-adv-x="844" 
d="M797 275l-206 -343h-38l-206 343l206 345h38zM752 275l-178 301h-3l-179 -300l179 -301h3z" />
    <glyph glyph-name="fi" unicode="&#xfb01;" horiz-adv-x="630" 
d="M552 535l-192 -215h2q94 39 191.5 104.5t164 136.5t66.5 118q0 37 -30 37q-41 0 -202 -181zM-236 -220l332 368q-17 6 -42.5 26.5t-25.5 36.5q0 21 17 21q14 0 19 -33q6 -26 42 -39l336 361q73 80 166.5 143.5t141.5 63.5q19 0 32.5 -11t13.5 -33q0 -81 -127 -188.5
t-329 -199.5l-138 -161q69 2 129 24.5t133 69.5l70 79h114l-234 -264q-20 -24 -20 -30q0 -14 17 -14q27 0 94.5 48.5t148.5 125.5l10 -4q-110 -106 -166.5 -144t-90.5 -38q-25 0 -43 19t-18 43q0 45 38 88l52 57l-2 2q-116 -74 -242 -74l-304 -343h-124zM688 446q0 20 19 39
t45 19q19 0 31.5 -10.5t12.5 -27.5q0 -20 -19 -39t-45 -19q-19 0 -31.5 10.5t-12.5 27.5z" />
    <glyph glyph-name="fl" unicode="&#xfb02;" horiz-adv-x="740" 
d="M842 504l-190 -222h2q89 36 188 107.5t165.5 145.5t66.5 117q0 32 -26 32q-50 0 -206 -180zM-236 -220l332 368q-17 6 -42.5 26.5t-25.5 36.5q0 21 17 21q14 0 19 -33q6 -26 42 -39l336 361q73 80 166.5 143.5t141.5 63.5q19 0 32.5 -11t13.5 -33q0 -81 -127 -188.5
t-329 -199.5l-138 -161q69 2 134 27t170 92q172 197 323 319.5t223 122.5q34 0 34 -42q0 -30 -33 -79t-89 -104.5t-143.5 -113t-184.5 -97.5l-137 -167q-35 -42 -35 -65q0 -13 11 -20.5t27 -7.5q53 0 131 59t123 115l14 -6q-62 -69 -137.5 -124.5t-126.5 -55.5
q-90 0 -90 112q0 49 60 120l-1 1q-151 -98 -283 -98l-304 -343h-124zM552 535l-192 -215h2q94 39 191.5 104.5t164 136.5t66.5 118q0 37 -30 37q-41 0 -202 -181z" />
    <glyph glyph-name="one.superior" horiz-adv-x="354" 
d="M118 232l280 284h-2q-128 -75 -195 -100l-11 6q67 31 95.5 44.5t79 45t83.5 64.5h94l-330 -344h-94z" />
    <glyph glyph-name="two.superior" horiz-adv-x="361" 
d="M396 520h12q-5 -30 -30.5 -57t-55.5 -27q-17 0 -29.5 11t-12.5 27q0 42 46 76t92 34q33 0 62.5 -20.5t29.5 -57.5q0 -47 -52 -94q-33 -30 -82.5 -46.5t-93 -22t-96 -21t-88.5 -42.5v-4h2q28 22 74 22q21 0 60.5 -13t59.5 -13q27 0 40 7t22 29h6q-7 -36 -36 -60t-68 -24
q-19 0 -74 10q-63 18 -80 18q-29 0 -56 -20l-12 8q3 3 17 14.5t17 14t15 12t16.5 12.5t16.5 10.5t20 11t21.5 10t26.5 11t29.5 10t35.5 11.5q101 30 150 84.5t49 98.5q0 13 -10.5 22.5t-21.5 9.5q-27 0 -70.5 -37t-43.5 -69q0 -18 18 -18q50 0 74 72z" />
    <glyph glyph-name="three.superior" horiz-adv-x="362" 
d="M277 408v14q18 -2 52 -2q28 0 46 6.5t42 25.5q20 16 33 39t13 43q0 21 -9.5 29.5t-28.5 8.5q-31 0 -71.5 -38t-40.5 -58t24 -20q19 0 34.5 10t23 20t16.5 26h10q-12 -28 -34 -48t-49 -20q-37 0 -37 38q0 39 41 70.5t83 31.5q33 0 59.5 -21t26.5 -51q0 -47 -47 -76.5
t-111 -31.5v-2q14 -3 23 -21.5t9 -34.5q0 -49 -48 -85.5t-140 -36.5q-102 0 -102 77q0 27 15 44t34 17q15 0 25 -11t10 -26q0 -35 -33 -35q-16 0 -24 15l-9 15q-6 0 -6 -21q0 -24 17.5 -43.5t53.5 -19.5q37 0 77 40q82 82 82 113q0 19 -40 19h-20z" />
    <glyph glyph-name="a.superior" horiz-adv-x="337" 
d="M401 552l22 24h87l-160 -160q-9 -9 -9 -14q0 -6 9 -6q71 0 173 104l6 -7q-107 -109 -176 -109q-48 0 -48 37q0 12 4 20h-2q-2 -2 -15 -13.5t-16.5 -14.5t-14.5 -10.5t-18 -10t-17.5 -5.5t-21.5 -3q-35 0 -35 50t59 100t120 50q26 0 39 -7.5t13 -16.5v-8h1zM388 554
q0 7 -5.5 12.5t-12.5 5.5q-12 0 -33 -19t-103 -104q-29 -30 -29 -40q0 -13 13 -13q36 0 89 56q37 39 57 62.5t23.5 30.5t0.5 9z" />
    <glyph glyph-name="o.superior" horiz-adv-x="289" 
d="M481 502v-13q-28 -20 -55 -20q-16 0 -29 4q-28 -27 -44 -40.5t-49 -31t-62 -17.5q-73 0 -73 55q0 44 59.5 94.5t119.5 50.5q35 0 52 -18q9 6 21 6q8 0 15 -6.5t7 -17.5q0 -23 -36 -64q6 -3 26 -3q22 0 48 21zM365 508q0 34 24 52q-6 6 -13 6q-21 0 -56 -31
q-109 -95 -109 -123q0 -17 25 -16q33 2 62 15.5t45 27.5t39 38q-17 9 -17 31z" />
    </font>
</defs>
</svg>
